  0
SECTION
  2
HEADER
  9
$ACADVER
  1
AC1015
  9
$ACADMAINTVER
 70
     6
  9
$DWGCODEPAGE
  3
ANSI_1252
  9
$INSBASE
 10
0.0
 20
0.0
 30
0.0
  9
$EXTMIN
 10
-278.7141399999993
 20
-72.57552913273832
 30
0.0
  9
$EXTMAX
 10
141.2858599999992
 20
224.4244708672617
 30
0.0
  9
$LIMMIN
 10
0.0
 20
0.0
  9
$LIMMAX
 10
12.0
 20
9.0
  9
$ORTHOMODE
 70
     0
  9
$REGENMODE
 70
     1
  9
$FILLMODE
 70
     1
  9
$QTEXTMODE
 70
     0
  9
$MIRRTEXT
 70
     1
  9
$LTSCALE
 40
1.0
  9
$ATTMODE
 70
     1
  9
$TEXTSIZE
 40
0.2
  9
$TRACEWID
 40
0.05
  9
$TEXTSTYLE
  7
Standard
  9
$CLAYER
  8
0
  9
$CELTYPE
  6
ByLayer
  9
$CECOLOR
 62
   256
  9
$CELTSCALE
 40
1.0
  9
$DISPSILH
 70
     0
  9
$DIMSCALE
 40
1.0
  9
$DIMASZ
 40
0.18
  9
$DIMEXO
 40
0.0625
  9
$DIMDLI
 40
0.38
  9
$DIMRND
 40
0.0
  9
$DIMDLE
 40
0.0
  9
$DIMEXE
 40
0.18
  9
$DIMTP
 40
0.0
  9
$DIMTM
 40
0.0
  9
$DIMTXT
 40
0.18
  9
$DIMCEN
 40
0.09
  9
$DIMTSZ
 40
0.0
  9
$DIMTOL
 70
     0
  9
$DIMLIM
 70
     0
  9
$DIMTIH
 70
     1
  9
$DIMTOH
 70
     1
  9
$DIMSE1
 70
     0
  9
$DIMSE2
 70
     0
  9
$DIMTAD
 70
     0
  9
$DIMZIN
 70
     0
  9
$DIMBLK
  1

  9
$DIMASO
 70
     1
  9
$DIMSHO
 70
     1
  9
$DIMPOST
  1

  9
$DIMAPOST
  1

  9
$DIMALT
 70
     0
  9
$DIMALTD
 70
     2
  9
$DIMALTF
 40
25.4
  9
$DIMLFAC
 40
1.0
  9
$DIMTOFL
 70
     0
  9
$DIMTVP
 40
0.0
  9
$DIMTIX
 70
     0
  9
$DIMSOXD
 70
     0
  9
$DIMSAH
 70
     0
  9
$DIMBLK1
  1

  9
$DIMBLK2
  1

  9
$DIMSTYLE
  2
Standard
  9
$DIMCLRD
 70
     0
  9
$DIMCLRE
 70
     0
  9
$DIMCLRT
 70
     0
  9
$DIMTFAC
 40
1.0
  9
$DIMGAP
 40
0.09
  9
$DIMJUST
 70
     0
  9
$DIMSD1
 70
     0
  9
$DIMSD2
 70
     0
  9
$DIMTOLJ
 70
     1
  9
$DIMTZIN
 70
     0
  9
$DIMALTZ
 70
     0
  9
$DIMALTTZ
 70
     0
  9
$DIMUPT
 70
     0
  9
$DIMDEC
 70
     4
  9
$DIMTDEC
 70
     4
  9
$DIMALTU
 70
     2
  9
$DIMALTTD
 70
     2
  9
$DIMTXSTY
  7
Standard
  9
$DIMAUNIT
 70
     0
  9
$DIMADEC
 70
     0
  9
$DIMALTRND
 40
0.0
  9
$DIMAZIN
 70
     0
  9
$DIMDSEP
 70
    46
  9
$DIMATFIT
 70
     3
  9
$DIMFRAC
 70
     0
  9
$DIMLDRBLK
  1

  9
$DIMLUNIT
 70
     2
  9
$DIMLWD
 70
    -2
  9
$DIMLWE
 70
    -2
  9
$DIMTMOVE
 70
     0
  9
$LUNITS
 70
     2
  9
$LUPREC
 70
     4
  9
$SKETCHINC
 40
0.1
  9
$FILLETRAD
 40
0.5
  9
$AUNITS
 70
     0
  9
$AUPREC
 70
     0
  9
$MENU
  1
.
  9
$ELEVATION
 40
0.0
  9
$PELEVATION
 40
0.0
  9
$THICKNESS
 40
0.0
  9
$LIMCHECK
 70
     0
  9
$CHAMFERA
 40
0.0
  9
$CHAMFERB
 40
0.0
  9
$CHAMFERC
 40
0.0
  9
$CHAMFERD
 40
0.0
  9
$SKPOLY
 70
     0
  9
$TDCREATE
 40
2457659.328343495
  9
$TDUCREATE
 40
2457659.245010162
  9
$TDUPDATE
 40
2457659.328346551
  9
$TDUUPDATE
 40
2457659.245013217
  9
$TDINDWG
 40
0.0000000116
  9
$TDUSRTIMER
 40
0.0000000116
  9
$USRTIMER
 70
     1
  9
$ANGBASE
 50
0.0
  9
$ANGDIR
 70
     0
  9
$PDMODE
 70
     0
  9
$PDSIZE
 40
0.0
  9
$PLINEWID
 40
0.0
  9
$SPLFRAME
 70
     0
  9
$SPLINETYPE
 70
     6
  9
$SPLINESEGS
 70
     8
  9
$HANDSEED
  5
3E4
  9
$SURFTAB1
 70
     6
  9
$SURFTAB2
 70
     6
  9
$SURFTYPE
 70
     6
  9
$SURFU
 70
     6
  9
$SURFV
 70
     6
  9
$UCSBASE
  2

  9
$UCSNAME
  2

  9
$UCSORG
 10
0.0
 20
0.0
 30
0.0
  9
$UCSXDIR
 10
1.0
 20
0.0
 30
0.0
  9
$UCSYDIR
 10
0.0
 20
1.0
 30
0.0
  9
$UCSORTHOREF
  2

  9
$UCSORTHOVIEW
 70
     0
  9
$UCSORGTOP
 10
0.0
 20
0.0
 30
0.0
  9
$UCSORGBOTTOM
 10
0.0
 20
0.0
 30
0.0
  9
$UCSORGLEFT
 10
0.0
 20
0.0
 30
0.0
  9
$UCSORGRIGHT
 10
0.0
 20
0.0
 30
0.0
  9
$UCSORGFRONT
 10
0.0
 20
0.0
 30
0.0
  9
$UCSORGBACK
 10
0.0
 20
0.0
 30
0.0
  9
$PUCSBASE
  2

  9
$PUCSNAME
  2

  9
$PUCSORG
 10
0.0
 20
0.0
 30
0.0
  9
$PUCSXDIR
 10
1.0
 20
0.0
 30
0.0
  9
$PUCSYDIR
 10
0.0
 20
1.0
 30
0.0
  9
$PUCSORTHOREF
  2

  9
$PUCSORTHOVIEW
 70
     0
  9
$PUCSORGTOP
 10
0.0
 20
0.0
 30
0.0
  9
$PUCSORGBOTTOM
 10
0.0
 20
0.0
 30
0.0
  9
$PUCSORGLEFT
 10
0.0
 20
0.0
 30
0.0
  9
$PUCSORGRIGHT
 10
0.0
 20
0.0
 30
0.0
  9
$PUCSORGFRONT
 10
0.0
 20
0.0
 30
0.0
  9
$PUCSORGBACK
 10
0.0
 20
0.0
 30
0.0
  9
$USERI1
 70
     0
  9
$USERI2
 70
     0
  9
$USERI3
 70
     0
  9
$USERI4
 70
     0
  9
$USERI5
 70
     0
  9
$USERR1
 40
19.0
  9
$USERR2
 40
0.0
  9
$USERR3
 40
0.0
  9
$USERR4
 40
0.0
  9
$USERR5
 40
0.0
  9
$WORLDVIEW
 70
     1
  9
$SHADEDGE
 70
     3
  9
$SHADEDIF
 70
    70
  9
$TILEMODE
 70
     1
  9
$MAXACTVP
 70
    64
  9
$PINSBASE
 10
0.0
 20
0.0
 30
0.0
  9
$PLIMCHECK
 70
     0
  9
$PEXTMIN
 10
1.00000000000000E+20
 20
1.00000000000000E+20
 30
1.00000000000000E+20
  9
$PEXTMAX
 10
-1.00000000000000E+20
 20
-1.00000000000000E+20
 30
-1.00000000000000E+20
  9
$PLIMMIN
 10
0.0
 20
0.0
  9
$PLIMMAX
 10
12.0
 20
9.0
  9
$UNITMODE
 70
     0
  9
$VISRETAIN
 70
     1
  9
$PLINEGEN
 70
     0
  9
$PSLTSCALE
 70
     1
  9
$TREEDEPTH
 70
  3020
  9
$CMLSTYLE
  2
Standard
  9
$CMLJUST
 70
     0
  9
$CMLSCALE
 40
1.0
  9
$PROXYGRAPHICS
 70
     1
  9
$MEASUREMENT
 70
     1
  9
$CELWEIGHT
370
    -1
  9
$ENDCAPS
280
     0
  9
$JOINSTYLE
280
     0
  9
$LWDISPLAY
290
     0
  9
$INSUNITS
 70
     4
  9
$HYPERLINKBASE
  1

  9
$STYLESHEET
  1

  9
$XEDIT
290
     1
  9
$CEPSNTYPE
380
     0
  9
$PSTYLEMODE
290
     1
  9
$FINGERPRINTGUID
  2
{F7DC03AF-1196-4976-8288-2EA71562B752}
  9
$VERSIONGUID
  2
{FAEB1C32-E019-11D5-929B-00C0DF256EC4}
  9
$EXTNAMES
290
     1
  9
$PSVPSCALE
 40
0.0
  9
$OLESTARTUP
290
     0
  0
ENDSEC
  0
SECTION
  2
CLASSES
  0
CLASS
  1
ACDBDICTIONARYWDFLT
  2
AcDbDictionaryWithDefault
  3
ObjectDBX Classes
 90
        0
280
     0
281
     0
  0
CLASS
  1
VISUALSTYLE
  2
AcDbVisualStyle
  3
ObjectDBX Classes
 90
     4095
280
     0
281
     0
  0
CLASS
  1
MATERIAL
  2
AcDbMaterial
  3
ObjectDBX Classes
 90
     1153
280
     0
281
     0
  0
CLASS
  1
SCALE
  2
AcDbScale
  3
ObjectDBX Classes
 90
     1153
280
     0
281
     0
  0
CLASS
  1
SUN
  2
AcDbSun
  3
SCENEOE
 90
     1153
280
     0
281
     0
  0
CLASS
  1
DICTIONARYVAR
  2
AcDbDictionaryVar
  3
ObjectDBX Classes
 90
        0
280
     0
281
     0
  0
CLASS
  1
ACDBPLACEHOLDER
  2
AcDbPlaceHolder
  3
ObjectDBX Classes
 90
        0
280
     0
281
     0
  0
CLASS
  1
LAYOUT
  2
AcDbLayout
  3
ObjectDBX Classes
 90
        0
280
     0
281
     0
  0
ENDSEC
  0
SECTION
  2
TABLES
  0
TABLE
  2
VPORT
  5
8
330
0
100
AcDbSymbolTable
 70
     1
  0
VPORT
  5
29
330
8
100
AcDbSymbolTableRecord
100
AcDbViewportTableRecord
  2
*Active
 70
     0
 10
0.0
 20
0.0
 11
1.0
 21
1.0
 12
-68.71414000000006
 22
75.92447086726169
 13
0.0
 23
0.0
 14
0.5
 24
0.5
 15
0.5
 25
0.5
 16
0.0
 26
0.0
 36
1.0
 17
0.0
 27
0.0
 37
0.0
 40
326.7
 41
1.60267857142857
 42
50.0
 43
0.0
 44
0.0
 50
0.0
 51
0.0
 71
     0
 72
   100
 73
     1
 74
     3
 75
     0
 76
     0
 77
     0
 78
     0
281
     0
 65
     1
110
0.0
120
0.0
130
0.0
111
1.0
121
0.0
131
0.0
112
0.0
122
1.0
132
0.0
 79
     0
146
0.0
  0
ENDTAB
  0
TABLE
  2
LTYPE
  5
5
330
0
100
AcDbSymbolTable
 70
     8
  0
LTYPE
  5
14
330
5
100
AcDbSymbolTableRecord
100
AcDbLinetypeTableRecord
  2
ByBlock
 70
     0
  3

 72
    65
 73
     0
 40
0.0
  0
LTYPE
  5
15
330
5
100
AcDbSymbolTableRecord
100
AcDbLinetypeTableRecord
  2
ByLayer
 70
     0
  3

 72
    65
 73
     0
 40
0.0
  0
LTYPE
  5
16
330
5
100
AcDbSymbolTableRecord
100
AcDbLinetypeTableRecord
  2
Continuous
 70
     0
  3
Solid line
 72
    65
 73
     0
 40
0.0
  0
LTYPE
  5
6A
330
5
100
AcDbSymbolTableRecord
100
AcDbLinetypeTableRecord
  2
DASHED
 70
     0
  3
Dashed
 72
    65
 73
     2
 40
15.0
 49
7.0
 74
     0
 49
-8.0
 74
     0
  0
LTYPE
  5
6B
330
5
100
AcDbSymbolTableRecord
100
AcDbLinetypeTableRecord
  2
DOTTED
 70
     0
  3
Dotted
 72
    65
 73
     2
 40
1.0
 49
0.0
 74
     0
 49
-1.0
 74
     0
  0
LTYPE
  5
6C
330
5
100
AcDbSymbolTableRecord
100
AcDbLinetypeTableRecord
  2
DOT_CENTER
 70
     0
  3
Dot_Center
 72
    65
 73
     4
 40
14.0
 49
12.0
 74
     0
 49
-1.0
 74
     0
 49
0.0
 74
     0
 49
-1.0
 74
     0
  0
LTYPE
  5
6D
330
5
100
AcDbSymbolTableRecord
100
AcDbLinetypeTableRecord
  2
LONG_DASHED
 70
     0
  3
Long_Dashed
 72
    65
 73
     2
 40
15.0
 49
10.0
 74
     0
 49
-5.0
 74
     0
  0
LTYPE
  5
6E
330
5
100
AcDbSymbolTableRecord
100
AcDbLinetypeTableRecord
  2
DASH_CENTER
 70
     0
  3
Dash_Center
 72
    65
 73
     4
 40
14.0
 49
11.0
 74
     0
 49
-1.0
 74
     0
 49
1.0
 74
     0
 49
-1.0
 74
     0
  0
LTYPE
  5
6F
330
5
100
AcDbSymbolTableRecord
100
AcDbLinetypeTableRecord
  2
PHANTOM
 70
     0
  3
Phantom
 72
    65
 73
     6
 40
13.0
 49
10.0
 74
     0
 49
-1.0
 74
     0
 49
0.0
 74
     0
 49
-1.0
 74
     0
 49
0.0
 74
     0
 49
-1.0
 74
     0
  0
LTYPE
  5
70
330
5
100
AcDbSymbolTableRecord
100
AcDbLinetypeTableRecord
  2
CENTER_DASH_DASH
 70
     0
  3
Center_Dash_Dash
 72
    65
 73
     6
 40
14.0
 49
9.0
 74
     0
 49
-1.0
 74
     0
 49
1.0
 74
     0
 49
-1.0
 74
     0
 49
1.0
 74
     0
 49
-1.0
 74
     0
  0
ENDTAB
  0
TABLE
  2
LAYER
  5
2
330
0
100
AcDbSymbolTable
 70
     2
  0
LAYER
  5
10
330
2
100
AcDbSymbolTableRecord
100
AcDbLayerTableRecord
  2
0
 70
     0
 62
     7
  6
Continuous
370
    -3
390
F
  0
LAYER
  5
71
330
2
100
AcDbSymbolTableRecord
100
AcDbLayerTableRecord
  2
1
 70
     0
 62
     7
  6
Continuous
370
    -3
390
F
  0
ENDTAB
  0
TABLE
  2
STYLE
  5
3
330
0
100
AcDbSymbolTable
 70
     9
  0
STYLE
  5
11
330
3
100
AcDbSymbolTableRecord
100
AcDbTextStyleTableRecord
  2
Standard
 70
     0
 40
0.0
 41
1.0
 50
0.0
 71
     0
 42
0.2
  3
txt
  4

  0
STYLE
  5
112
330
3
100
AcDbSymbolTableRecord
100
AcDbTextStyleTableRecord
  2
CONVERTER_11
 70
     0
 40
0.0
 41
0.9
 50
0.0
 71
     0
 42
0.2
  3
txt.shx
  4

  0
STYLE
  5
318
330
3
100
AcDbSymbolTableRecord
100
AcDbTextStyleTableRecord
  2
CONVERTER_12
 70
     0
 40
0.0
 41
0.81
 50
0.0
 71
     0
 42
0.2
  3
txt.shx
  4

  0
STYLE
  5
31A
330
3
100
AcDbSymbolTableRecord
100
AcDbTextStyleTableRecord
  2
CONVERTER_13
 70
     0
 40
0.0
 41
0.54
 50
0.0
 71
     0
 42
0.2
  3
txt.shx
  4

  0
STYLE
  5
31C
330
3
100
AcDbSymbolTableRecord
100
AcDbTextStyleTableRecord
  2
CONVERTER_14
 70
     0
 40
0.0
 41
0.72
 50
0.0
 71
     0
 42
0.2
  3
txt.shx
  4

  0
STYLE
  5
31E
330
3
100
AcDbSymbolTableRecord
100
AcDbTextStyleTableRecord
  2
CONVERTER_15
 70
     0
 40
0.0
 41
0.63
 50
0.0
 71
     0
 42
0.2
  3
txt.shx
  4

  0
STYLE
  5
322
330
3
100
AcDbSymbolTableRecord
100
AcDbTextStyleTableRecord
  2
CONVERTER_16
 70
     0
 40
0.0
 41
0.45
 50
0.0
 71
     0
 42
0.2
  3
txt.shx
  4

  0
STYLE
  5
35A
330
3
100
AcDbSymbolTableRecord
100
AcDbTextStyleTableRecord
  2
CONVERTER_17
 70
     0
 40
0.0
 41
0.855
 50
0.0
 71
     0
 42
0.2
  3
txt.shx
  4

  0
STYLE
  5
37C
330
3
100
AcDbSymbolTableRecord
100
AcDbTextStyleTableRecord
  2
CONVERTER_18
 70
     0
 40
0.0
 41
0.765
 50
0.0
 71
     0
 42
0.2
  3
txt.shx
  4

  0
ENDTAB
  0
TABLE
  2
VIEW
  5
6
330
0
100
AcDbSymbolTable
 70
     0
  0
ENDTAB
  0
TABLE
  2
UCS
  5
7
330
0
100
AcDbSymbolTable
 70
     0
  0
ENDTAB
  0
TABLE
  2
APPID
  5
9
330
0
100
AcDbSymbolTable
 70
     1
  0
APPID
  5
12
330
9
100
AcDbSymbolTableRecord
100
AcDbRegAppTableRecord
  2
ACAD
 70
     0
  0
ENDTAB
  0
TABLE
  2
DIMSTYLE
  5
A
330
0
100
AcDbSymbolTable
 70
     9
100
AcDbDimStyleTable
  0
DIMSTYLE
105
27
330
A
100
AcDbSymbolTableRecord
100
AcDbDimStyleTableRecord
  2
Standard
 70
     0
178
     0
340
11
  0
DIMSTYLE
105
116
102
{ACAD_REACTORS
330
117
102
}
330
A
100
AcDbSymbolTableRecord
100
AcDbDimStyleTableRecord
  2
ME10_DIM_10
 70
     0
 41
3.5
 42
0.0
 44
2.0
 73
     0
 74
     0
 77
     1
 78
     8
140
3.5
147
2.0
172
     1
173
     1
174
     1
175
     1
176
     2
177
     2
271
     0
178
     3
271
     0
340
112
  0
DIMSTYLE
105
149
102
{ACAD_REACTORS
330
14A
102
}
330
A
100
AcDbSymbolTableRecord
100
AcDbDimStyleTableRecord
  2
ME10_DIM_11
 70
     0
 41
3.5
 42
0.0
 44
2.0
 73
     0
 74
     0
 77
     1
 78
     8
140
3.5
147
2.0
172
     1
173
     1
174
     1
175
     1
176
     2
177
     2
178
     3
340
112
  0
DIMSTYLE
105
154
102
{ACAD_REACTORS
330
155
102
}
330
A
100
AcDbSymbolTableRecord
100
AcDbDimStyleTableRecord
  2
ME10_DIM_12
 70
     0
  3
(<>)
 41
3.5
 42
0.0
 44
2.0
 73
     0
 74
     0
 77
     1
 78
     8
140
3.5
147
2.0
172
     1
173
     1
174
     1
175
     1
176
     2
177
     2
271
     1
178
     3
271
     1
340
112
  0
DIMSTYLE
105
161
102
{ACAD_REACTORS
330
162
102
}
330
A
100
AcDbSymbolTableRecord
100
AcDbDimStyleTableRecord
  2
ME10_DIM_13
 70
     0
 41
3.5
 42
0.0
 44
2.0
 73
     0
 74
     0
 77
     1
 78
     8
140
3.5
147
2.0
172
     1
173
     1
174
     1
175
     1
176
     2
177
     2
271
     1
178
     3
271
     1
340
112
  0
DIMSTYLE
105
16C
102
{ACAD_REACTORS
330
16D
102
}
330
A
100
AcDbSymbolTableRecord
100
AcDbDimStyleTableRecord
  2
ME10_DIM_14
 70
     0
 41
3.5
 42
0.0
 44
2.0
 73
     0
 74
     0
 77
     1
 78
     8
140
3.5
147
2.0
172
     1
173
     1
174
     1
175
     1
176
     2
177
     2
271
     1
178
     3
271
     1
340
112
  0
DIMSTYLE
105
177
102
{ACAD_REACTORS
330
178
102
}
330
A
100
AcDbSymbolTableRecord
100
AcDbDimStyleTableRecord
  2
ME10_DIM_15
 70
     0
 41
3.5
 42
0.0
 44
2.0
 73
     0
 74
     0
 77
     1
 78
     8
140
3.5
147
2.0
172
     1
173
     1
174
     1
175
     1
176
     2
177
     2
178
     3
340
112
  0
DIMSTYLE
105
182
102
{ACAD_REACTORS
330
183
102
}
330
A
100
AcDbSymbolTableRecord
100
AcDbDimStyleTableRecord
  2
ME10_DIM_16
 70
     0
 41
3.5
 42
0.0
 44
2.0
 73
     0
 74
     0
 77
     1
 78
     8
140
3.5
147
2.0
172
     1
173
     1
174
     1
175
     1
176
     2
177
     2
271
     2
178
     3
271
     2
340
112
  0
DIMSTYLE
105
18D
102
{ACAD_REACTORS
330
18E
102
}
330
A
100
AcDbSymbolTableRecord
100
AcDbDimStyleTableRecord
  2
ME10_DIM_17
 70
     0
 41
3.5
 42
0.0
 44
1.5
 73
     0
 74
     0
 77
     1
 78
     8
140
3.5
147
1.5
172
     1
173
     1
174
     1
175
     1
176
     2
177
     2
271
     2
178
     3
271
     2
340
112
  0
ENDTAB
  0
TABLE
  2
BLOCK_RECORD
  5
1
330
0
100
AcDbSymbolTable
 70
    25
  0
BLOCK_RECORD
  5
1F
330
1
100
AcDbSymbolTableRecord
100
AcDbBlockTableRecord
  2
*Model_Space
340
22
  0
BLOCK_RECORD
  5
1B
330
1
100
AcDbSymbolTableRecord
100
AcDbBlockTableRecord
  2
*Paper_Space
340
1E
  0
BLOCK_RECORD
  5
23
330
1
100
AcDbSymbolTableRecord
100
AcDbBlockTableRecord
  2
*Paper_Space0
340
26
  0
BLOCK_RECORD
  5
72
330
1
100
AcDbSymbolTableRecord
100
AcDbBlockTableRecord
  2
2881007_DT_LAN_CAT_6_select__1
340
0
102
{BLKREFS
331
76
102
}
  0
BLOCK_RECORD
  5
75
330
1
100
AcDbSymbolTableRecord
100
AcDbBlockTableRecord
  2
AllgSicht1
340
0
102
{BLKREFS
331
A8
102
}
  0
BLOCK_RECORD
  5
79
330
1
100
AcDbSymbolTableRecord
100
AcDbBlockTableRecord
  2
2881007_DT_LAN_CAT_6_select__2
340
0
102
{BLKREFS
331
7D
102
}
  0
BLOCK_RECORD
  5
7C
330
1
100
AcDbSymbolTableRecord
100
AcDbBlockTableRecord
  2
Drfsicht1
340
0
102
{BLKREFS
331
A9
102
}
  0
BLOCK_RECORD
  5
80
330
1
100
AcDbSymbolTableRecord
100
AcDbBlockTableRecord
  2
2881007_DT_LAN_CAT_6_select__3
340
0
102
{BLKREFS
331
84
102
}
  0
BLOCK_RECORD
  5
83
330
1
100
AcDbSymbolTableRecord
100
AcDbBlockTableRecord
  2
Rcksicht1
340
0
102
{BLKREFS
331
AA
102
}
  0
BLOCK_RECORD
  5
87
330
1
100
AcDbSymbolTableRecord
100
AcDbBlockTableRecord
  2
2881007_DT_LAN_CAT_6_select__4
340
0
102
{BLKREFS
331
8B
102
}
  0
BLOCK_RECORD
  5
8A
330
1
100
AcDbSymbolTableRecord
100
AcDbBlockTableRecord
  2
SA_links1
340
0
102
{BLKREFS
331
AB
102
}
  0
BLOCK_RECORD
  5
8E
330
1
100
AcDbSymbolTableRecord
100
AcDbBlockTableRecord
  2
2881007_DT_LAN_CAT_6_select__5
340
0
102
{BLKREFS
331
92
102
}
  0
BLOCK_RECORD
  5
91
330
1
100
AcDbSymbolTableRecord
100
AcDbBlockTableRecord
  2
SA_rechts1
340
0
102
{BLKREFS
331
AC
102
}
  0
BLOCK_RECORD
  5
95
330
1
100
AcDbSymbolTableRecord
100
AcDbBlockTableRecord
  2
2881007_DT_LAN_CAT_6_select__6
340
0
102
{BLKREFS
331
99
102
}
  0
BLOCK_RECORD
  5
98
330
1
100
AcDbSymbolTableRecord
100
AcDbBlockTableRecord
  2
Vordans1
340
0
102
{BLKREFS
331
AD
102
}
  0
BLOCK_RECORD
  5
9C
330
1
100
AcDbSymbolTableRecord
100
AcDbBlockTableRecord
  2
_rahmen
340
0
102
{BLKREFS
331
A3
102
}
  0
BLOCK_RECORD
  5
9F
330
1
100
AcDbSymbolTableRecord
100
AcDbBlockTableRecord
  2
_punkt
340
0
102
{BLKREFS
331
A4
102
}
  0
BLOCK_RECORD
  5
A2
330
1
100
AcDbSymbolTableRecord
100
AcDbBlockTableRecord
  2
A3I
340
0
102
{BLKREFS
331
AE
102
}
  0
BLOCK_RECORD
  5
A7
330
1
100
AcDbSymbolTableRecord
100
AcDbBlockTableRecord
  2
1
340
0
102
{BLKREFS
331
B1
102
}
  0
BLOCK_RECORD
  5
10C
330
1
100
AcDbSymbolTableRecord
100
AcDbBlockTableRecord
  2
*D17
340
0
  0
BLOCK_RECORD
  5
140
330
1
100
AcDbSymbolTableRecord
100
AcDbBlockTableRecord
  2
*D18
340
0
  0
BLOCK_RECORD
  5
14B
330
1
100
AcDbSymbolTableRecord
100
AcDbBlockTableRecord
  2
*D19
340
0
  0
BLOCK_RECORD
  5
156
330
1
100
AcDbSymbolTableRecord
100
AcDbBlockTableRecord
  2
*D20
340
0
  0
BLOCK_RECORD
  5
163
330
1
100
AcDbSymbolTableRecord
100
AcDbBlockTableRecord
  2
*D21
340
0
  0
BLOCK_RECORD
  5
16E
330
1
100
AcDbSymbolTableRecord
100
AcDbBlockTableRecord
  2
*D22
340
0
  0
BLOCK_RECORD
  5
179
330
1
100
AcDbSymbolTableRecord
100
AcDbBlockTableRecord
  2
*D23
340
0
  0
BLOCK_RECORD
  5
184
330
1
100
AcDbSymbolTableRecord
100
AcDbBlockTableRecord
  2
*D24
340
0
  0
ENDTAB
  0
ENDSEC
  0
SECTION
  2
BLOCKS
  0
BLOCK
  5
20
330
1F
100
AcDbEntity
  8
0
100
AcDbBlockBegin
  2
*Model_Space
 70
     0
 10
0.0
 20
0.0
 30
0.0
  3
*Model_Space
  1
*Model_Space
  0
ENDBLK
  5
21
330
1F
100
AcDbEntity
  8
0
100
AcDbBlockEnd
  0
BLOCK
  5
1C
330
1B
100
AcDbEntity
 67
     1
  8
0
100
AcDbBlockBegin
  2
*Paper_Space
 70
     0
 10
0.0
 20
0.0
 30
0.0
  3
*Paper_Space
  1
*Paper_Space
  0
ENDBLK
  5
1D
330
1B
100
AcDbEntity
 67
     1
  8
0
100
AcDbBlockEnd
  0
BLOCK
  5
24
330
23
100
AcDbEntity
  8
0
100
AcDbBlockBegin
  2
*Paper_Space0
 70
     0
 10
0.0
 20
0.0
 30
0.0
  3
*Paper_Space0
  1
*Paper_Space0
  0
ENDBLK
  5
25
330
23
100
AcDbEntity
  8
0
100
AcDbBlockEnd
  0
BLOCK
  5
73
330
72
100
AcDbEntity
  8
0
100
AcDbBlockBegin
  2
2881007_DT_LAN_CAT_6_select__1
 70
     0
 10
5.4737298107737
 20
-19.22397873932809
 30
0.0
  3
2881007_DT_LAN_CAT_6_select__1
  1
2881007_DT_LAN_CAT_6_select__1
  0
LINE
  5
B2
330
72
100
AcDbEntity
  8
0
  6
Continuous
 62
     7
100
AcDbLine
 10
5.4737298107737
 20
7.64039622861454
 30
0.0
 11
5.4737298107809
 21
44.79890331683822
 31
0.0
  0
LINE
  5
B3
330
72
100
AcDbEntity
  8
0
  6
Continuous
 62
     7
100
AcDbLine
 10
5.4737298107737
 20
7.64039622861454
 30
0.0
 11
9.07093503155221
 21
5.77602126067194
 31
0.0
  0
LINE
  5
B4
330
72
100
AcDbEntity
  8
0
  6
Continuous
 62
     7
100
AcDbLine
 10
5.4737298107737
 20
7.64039622861454
 30
0.0
 11
33.0130823180813
 21
-0.30953006308647
 31
0.0
  0
LINE
  5
B5
330
72
100
AcDbEntity
  8
0
  6
Continuous
 62
     7
100
AcDbLine
 10
35.27599539533881
 20
-1.78872806690936
 30
0.0
 11
9.07093503155221
 21
5.77602126067194
 31
0.0
  0
LINE
  5
B6
330
72
100
AcDbEntity
  8
0
  6
Continuous
 62
     7
100
AcDbLine
 10
102.6262701892238
 20
24.03297984259462
 30
0.0
 11
96.25127018922382
 21
18.51206789347254
 31
0.0
  0
LINE
  5
B7
330
72
100
AcDbEntity
  8
0
  6
Continuous
 62
     7
100
AcDbLine
 10
102.626270189221
 20
9.48375305901363
 30
0.0
 11
100.0281939778677
 21
10.23375305901363
 31
0.0
  0
LINE
  5
B8
330
72
100
AcDbEntity
  8
0
  6
Continuous
 62
     7
100
AcDbLine
 10
96.25127018922149
 20
6.96284110989055
 30
0.0
 11
100.0281939778677
 21
10.23375305901363
 31
0.0
  0
LINE
  5
B9
330
72
100
AcDbEntity
  8
0
  6
Continuous
 62
     7
100
AcDbLine
 10
96.25127018922097
 20
3.96284110989154
 30
0.0
 11
102.626270189221
 21
9.48375305901363
 31
0.0
  0
LINE
  5
BA
330
72
100
AcDbEntity
  8
0
  6
Continuous
 62
     7
100
AcDbLine
 10
63.5186981160557
 20
-9.43894113129147
 30
0.0
 11
64.5313078794658
 21
-9.56606613770265
 31
0.0
  0
LINE
  5
BB
330
72
100
AcDbEntity
  8
0
  6
Continuous
 62
     7
100
AcDbLine
 10
95.673475409996
 20
-19.22397873932809
 30
0.0
 11
92.07627018921761
 21
-17.35960377138549
 31
0.0
  0
LINE
  5
BC
330
72
100
AcDbEntity
  8
0
  6
Continuous
 62
     7
100
AcDbLine
 10
65.7083012935422
 20
-10.57377806810378
 30
0.0
 11
63.5186981160557
 21
-9.43894113129147
 31
0.0
  0
LINE
  5
BD
330
72
100
AcDbEntity
  8
0
  6
Continuous
 62
     7
100
AcDbLine
 10
95.673475409996
 20
-19.22397873932809
 30
0.0
 11
65.7083012935422
 21
-10.57377806810378
 31
0.0
  0
LINE
  5
BE
330
72
100
AcDbEntity
  8
0
  6
Continuous
 62
     7
100
AcDbLine
 10
63.84314688032711
 20
-9.20940310015959
 30
0.0
 11
92.07627018921761
 21
-17.35960377138549
 31
0.0
  0
LINE
  5
BF
330
72
100
AcDbEntity
  8
0
  6
Continuous
 62
     7
100
AcDbLine
 10
100.0281939778677
 20
10.23375305901363
 30
0.0
 11
100.0281939778699
 21
21.78297984259563
 31
0.0
  0
LINE
  5
C0
330
72
100
AcDbEntity
  8
0
  6
Continuous
 62
     7
100
AcDbLine
 10
92.07627018922472
 20
19.7989033168381
 30
0.0
 11
92.07627018921761
 21
-17.35960377138549
 31
0.0
  0
LINE
  5
C1
330
72
100
AcDbEntity
  8
0
  6
Continuous
 62
     7
100
AcDbLine
 10
63.5186981160557
 20
-9.43894113129147
 30
0.0
 11
63.79859607321859
 21
-9.19654238992119
 31
0.0
  0
LINE
  5
C2
330
72
100
AcDbEntity
  8
0
  6
Continuous
 62
     7
100
AcDbLine
 10
64.5313078794658
 20
-9.56606613770265
 30
0.0
 11
63.84314688032711
 21
-9.20940310015959
 31
0.0
  0
LINE
  5
C3
330
72
100
AcDbEntity
  8
0
  6
Continuous
 62
     7
100
AcDbLine
 10
33.0130823180813
 20
-0.30953006308647
 30
0.0
 11
63.84314688032711
 21
-9.20940310015959
 31
0.0
  0
LINE
  5
C4
330
72
100
AcDbEntity
  8
0
  6
Continuous
 62
     7
100
AcDbLine
 10
96.25127018922382
 20
18.51206789347254
 30
0.0
 11
96.25127018922097
 21
3.96284110989154
 31
0.0
  0
LINE
  5
C5
330
72
100
AcDbEntity
  8
0
  6
Continuous
 62
     7
100
AcDbLine
 10
95.673475409996
 20
-19.22397873932809
 30
0.0
 11
100.9290649684372
 21
-14.67250466985684
 31
0.0
  0
LINE
  5
C6
330
72
100
AcDbEntity
  8
0
  6
Continuous
 62
     7
100
AcDbLine
 10
17.92372981078341
 20
68.33924984314699
 30
0.0
 11
5.9737298107834
 21
57.9902462679299
 31
0.0
  0
LINE
  5
C7
330
72
100
AcDbEntity
  8
0
  6
Continuous
 62
     7
100
AcDbLine
 10
5.9737298107834
 20
57.9902462679299
 30
0.0
 11
5.97372981078121
 21
46.73191601873043
 31
0.0
  0
LINE
  5
C8
330
72
100
AcDbEntity
  8
0
  6
Continuous
 62
     7
100
AcDbLine
 10
104.5262701892273
 20
43.33924984314696
 30
0.0
 11
92.57627018922722
 21
32.99024626792988
 31
0.0
  0
LINE
  5
C9
330
72
100
AcDbEntity
  8
0
  6
Continuous
 62
     7
100
AcDbLine
 10
92.57627018922722
 20
32.99024626792988
 30
0.0
 11
92.57627018922511
 21
21.73191601873036
 31
0.0
  0
LINE
  5
CA
330
72
100
AcDbEntity
  8
0
  6
Continuous
 62
     7
100
AcDbLine
 10
5.97372981078121
 20
46.73191601873043
 30
0.0
 11
5.4737298107809
 21
44.79890331683822
 31
0.0
  0
LINE
  5
CB
330
72
100
AcDbEntity
  8
0
  6
Continuous
 62
     7
100
AcDbLine
 10
92.07627018922472
 20
19.7989033168381
 30
0.0
 11
92.57627018922511
 21
21.73191601873036
 31
0.0
  0
LINE
  5
CC
330
72
100
AcDbEntity
  8
0
  6
Continuous
 62
     7
100
AcDbLine
 10
92.07627018922472
 20
19.7989033168381
 30
0.0
 11
5.4737298107809
 21
44.79890331683822
 31
0.0
  0
LINE
  5
CD
330
72
100
AcDbEntity
  8
0
  6
Continuous
 62
     7
100
AcDbLine
 10
92.57627018922722
 20
32.99024626792988
 30
0.0
 11
5.9737298107834
 21
57.9902462679299
 31
0.0
  0
LINE
  5
CE
330
72
100
AcDbEntity
  8
0
  6
Continuous
 62
     7
100
AcDbLine
 10
104.5262701892273
 20
43.33924984314696
 30
0.0
 11
17.92372981078341
 21
68.33924984314699
 31
0.0
  0
LINE
  5
CF
330
72
100
AcDbEntity
  8
0
  6
Continuous
 62
     7
100
AcDbLine
 10
102.626270189221
 20
9.48375305901363
 30
0.0
 11
102.6262701892238
 21
24.03297984259462
 31
0.0
  0
LINE
  5
D0
330
72
100
AcDbEntity
  8
0
  6
Continuous
 62
     7
100
AcDbLine
 10
100.9290649684372
 20
-14.67250466985684
 30
0.0
 11
104.5262701892175
 21
-6.57758749427644
 31
0.0
  0
LINE
  5
D1
330
72
100
AcDbEntity
  8
0
  6
Continuous
 62
     7
100
AcDbLine
 10
104.5262701892175
 20
-6.57758749427644
 30
0.0
 11
104.5262701892273
 21
43.33924984314696
 31
0.0
  0
LINE
  5
D2
330
72
100
AcDbEntity
  8
0
  6
Continuous
 62
     7
100
AcDbLine
 10
35.27599539533881
 20
-1.78872806690936
 30
0.0
 11
35.99129017456261
 21
-1.16926461690753
 31
0.0
  0
LINE
  5
D3
330
72
100
AcDbEntity
  8
0
  6
Continuous
 62
     7
100
AcDbLine
 10
35.27599539533881
 20
-1.78872806690936
 30
0.0
 11
33.0130823180813
 21
-0.30953006308647
 31
0.0
  0
LINE
  5
D4
330
72
100
AcDbEntity
  8
0
  6
Continuous
 62
     7
100
AcDbLine
 10
92.57627018922511
 20
21.73191601873036
 30
0.0
 11
5.97372981078121
 21
46.73191601873043
 31
0.0
  0
ENDBLK
  5
74
330
72
100
AcDbEntity
  8
0
100
AcDbBlockEnd
  0
BLOCK
  5
77
330
75
100
AcDbEntity
  8
0
100
AcDbBlockBegin
  2
AllgSicht1
 70
     0
 10
55.0
 20
23.0
 30
0.0
  3
AllgSicht1
  1
AllgSicht1
  0
INSERT
  5
76
330
75
100
AcDbEntity
  8
0
100
AcDbBlockReference
  2
2881007_DT_LAN_CAT_6_select__1
 10
5.4737298107737
 20
-19.22397873932809
 30
0.0
  0
ENDBLK
  5
78
330
75
100
AcDbEntity
  8
0
100
AcDbBlockEnd
  0
BLOCK
  5
7A
330
79
100
AcDbEntity
  8
0
100
AcDbBlockBegin
  2
2881007_DT_LAN_CAT_6_select__2
 70
     0
 10
-174.6127933953613
 20
30.36452646830588
 30
0.0
  3
2881007_DT_LAN_CAT_6_select__2
  1
2881007_DT_LAN_CAT_6_select__2
  0
LINE
  5
D5
330
79
100
AcDbEntity
  8
0
  6
Continuous
 62
     7
100
AcDbLine
 10
-174.6127933953613
 20
46.81452646830594
 30
0.0
 11
-173.4523779943239
 21
46.81452646830594
 31
0.0
  0
LINE
  5
D6
330
79
100
AcDbEntity
  8
0
  6
Continuous
 62
     7
100
AcDbLine
 10
-173.4523779943239
 20
38.81452646830599
 30
0.0
 11
-174.6127933953613
 21
38.81452646830599
 31
0.0
  0
LINE
  5
D7
330
79
100
AcDbEntity
  8
0
  6
Continuous
 62
     7
100
AcDbLine
 10
-172.7141403352971
 20
46.81452646830593
 30
0.0
 11
-173.1436958601702
 21
46.81452646830593
 31
0.0
  0
LINE
  5
D8
330
79
100
AcDbEntity
  8
0
  6
Continuous
 62
     7
100
AcDbLine
 10
-173.1436958601702
 20
46.81452646830593
 30
0.0
 11
-173.1436958601702
 21
38.81452646830599
 31
0.0
  0
LINE
  5
D9
330
79
100
AcDbEntity
  8
0
  6
Continuous
 62
     7
100
AcDbLine
 10
-173.4523779943239
 20
46.81452646830594
 30
0.0
 11
-173.1436958601702
 21
46.81452646830593
 31
0.0
  0
LINE
  5
DA
330
79
100
AcDbEntity
  8
0
  6
Continuous
 62
     7
100
AcDbLine
 10
-173.4523779943239
 20
38.81452646830599
 30
0.0
 11
-173.4523779943239
 21
46.81452646830594
 31
0.0
  0
LINE
  5
DB
330
79
100
AcDbEntity
  8
0
  6
Continuous
 62
     7
100
AcDbLine
 10
-174.6127933953613
 20
38.81452646830599
 30
0.0
 11
-174.6127933953613
 21
46.81452646830594
 31
0.0
  0
LINE
  5
DC
330
79
100
AcDbEntity
  8
0
  6
Continuous
 62
     7
100
AcDbLine
 10
-172.7141403352971
 20
38.81452646830599
 30
0.0
 11
-173.1436958601702
 21
38.81452646830599
 31
0.0
  0
LINE
  5
DD
330
79
100
AcDbEntity
  8
0
  6
Continuous
 62
     7
100
AcDbLine
 10
-173.1436958601702
 20
38.81452646830599
 30
0.0
 11
-173.4523779943239
 21
38.81452646830599
 31
0.0
  0
LINE
  5
DE
330
79
100
AcDbEntity
  8
0
  6
Continuous
 62
     7
100
AcDbLine
 10
-72.71414033529703
 20
30.36452646830588
 30
0.0
 11
-172.7141403352971
 21
30.36452646830588
 31
0.0
  0
LINE
  5
DF
330
79
100
AcDbEntity
  8
0
  6
Continuous
 62
     7
100
AcDbLine
 10
-72.71414033529703
 20
31.36452646830588
 30
0.0
 11
-172.7141403352971
 21
31.36452646830598
 31
0.0
  0
LINE
  5
E0
330
79
100
AcDbEntity
  8
0
  6
Continuous
 62
     7
100
AcDbLine
 10
-172.7141403352971
 20
46.81452646830593
 30
0.0
 11
-172.7141403352971
 21
38.81452646830599
 31
0.0
  0
LINE
  5
E1
330
79
100
AcDbEntity
  8
0
  6
Continuous
 62
     7
100
AcDbLine
 10
-172.7141403352971
 20
38.81452646830599
 30
0.0
 11
-172.7141403352971
 21
31.36452646830598
 31
0.0
  0
LINE
  5
E2
330
79
100
AcDbEntity
  8
0
  6
Continuous
 62
     7
100
AcDbLine
 10
-172.7141403352971
 20
31.36452646830598
 30
0.0
 11
-172.7141403352971
 21
30.36452646830588
 31
0.0
  0
LINE
  5
E3
330
79
100
AcDbEntity
  8
0
  6
Continuous
 62
     7
100
AcDbLine
 10
-172.7141403352971
 20
55.26452646830592
 30
0.0
 11
-172.7141403352971
 21
46.81452646830593
 31
0.0
  0
LINE
  5
E4
330
79
100
AcDbEntity
  8
0
  6
Continuous
 62
     7
100
AcDbLine
 10
-72.71414033529703
 20
55.26452646830592
 30
0.0
 11
-72.71414033529703
 21
31.36452646830588
 31
0.0
  0
LINE
  5
E5
330
79
100
AcDbEntity
  8
0
  6
Continuous
 62
     7
100
AcDbLine
 10
-72.71414033529703
 20
30.36452646830588
 30
0.0
 11
-72.71414033529703
 21
31.36452646830588
 31
0.0
  0
LINE
  5
E6
330
79
100
AcDbEntity
  8
0
  6
Continuous
 62
     7
100
AcDbLine
 10
-72.71414033529703
 20
55.26452646830592
 30
0.0
 11
-172.7141403352971
 21
55.26452646830592
 31
0.0
  0
ENDBLK
  5
7B
330
79
100
AcDbEntity
  8
0
100
AcDbBlockEnd
  0
BLOCK
  5
7E
330
7C
100
AcDbEntity
  8
0
100
AcDbBlockBegin
  2
Drfsicht1
 70
     0
 10
-122.714140335297
 20
42.81452646830591
 30
0.0
  3
Drfsicht1
  1
Drfsicht1
  0
INSERT
  5
7D
330
7C
100
AcDbEntity
  8
0
100
AcDbBlockReference
  2
2881007_DT_LAN_CAT_6_select__2
 10
-174.6127933953613
 20
30.36452646830588
 30
0.0
  0
ENDBLK
  5
7F
330
7C
100
AcDbEntity
  8
0
100
AcDbBlockEnd
  0
BLOCK
  5
81
330
80
100
AcDbEntity
  8
0
100
AcDbBlockBegin
  2
2881007_DT_LAN_CAT_6_select__3
 70
     0
 10
8.73586
 20
107.6839215261486
 30
0.0
  3
2881007_DT_LAN_CAT_6_select__3
  1
2881007_DT_LAN_CAT_6_select__3
  0
LINE
  5
E7
330
80
100
AcDbEntity
  8
0
  6
Continuous
 62
     7
100
AcDbLine
 10
110.6342884061419
 20
109.869885681346
 30
0.0
 11
110.6345130600643
 21
112.8198856727919
 31
0.0
  0
LINE
  5
E8
330
80
100
AcDbEntity
  8
0
  6
Continuous
 62
     7
100
AcDbLine
 10
110.6345130600643
 20
112.8198856727919
 30
0.0
 11
109.4740976590269
 21
112.819974042918
 31
0.0
  0
LINE
  5
E9
330
80
100
AcDbEntity
  8
0
  6
Continuous
 62
     7
100
AcDbLine
 10
76.93615483319593
 20
113.4339215261488
 30
0.0
 11
108.73586
 21
113.4339215261488
 31
0.0
  0
LINE
  5
EA
330
80
100
AcDbEntity
  8
0
  6
Continuous
 62
     7
100
AcDbLine
 10
109.4740976590269
 20
112.819974042918
 30
0.0
 11
109.1654155248732
 21
111.0701299150958
 31
0.0
  0
LINE
  5
EB
330
80
100
AcDbEntity
  8
0
  6
Continuous
 62
     7
100
AcDbLine
 10
41.33666268490362
 20
113.4339215261488
 30
0.0
 11
76.93615483319593
 21
113.4339215261488
 31
0.0
  0
LINE
  5
EC
330
80
100
AcDbEntity
  8
0
  6
Continuous
 62
     7
100
AcDbLine
 10
108.73586
 20
111.0701299150958
 30
0.0
 11
109.1654155248732
 21
111.0701299150958
 31
0.0
  0
LINE
  5
ED
330
80
100
AcDbEntity
  8
0
  6
Continuous
 62
     7
100
AcDbLine
 10
108.73586
 20
111.0701299150958
 30
0.0
 11
108.73586
 21
109.8700302540202
 31
0.0
  0
LINE
  5
EE
330
80
100
AcDbEntity
  8
0
  6
Continuous
 62
     7
100
AcDbLine
 10
108.73586
 20
109.8700302540202
 30
0.0
 11
108.73586
 21
107.6839215261486
 31
0.0
  0
LINE
  5
EF
330
80
100
AcDbEntity
  8
0
  6
Continuous
 62
     7
100
AcDbLine
 10
108.73586
 20
113.4339215261488
 30
0.0
 11
108.73586
 21
171.0729204738514
 31
0.0
  0
LINE
  5
F0
330
80
100
AcDbEntity
  8
0
  6
Continuous
 62
     7
100
AcDbLine
 10
108.73586
 20
113.4339215261488
 30
0.0
 11
108.73586
 21
111.0701299150958
 31
0.0
  0
LINE
  5
F1
330
80
100
AcDbEntity
  8
0
  6
Continuous
 62
     7
100
AcDbLine
 10
41.33666268490362
 20
112.3339215255396
 30
0.0
 11
43.33666268489719
 21
111.1839215255434
 31
0.0
  0
LINE
  5
F2
330
80
100
AcDbEntity
  8
0
  6
Continuous
 62
     7
100
AcDbLine
 10
78.47686268967482
 20
107.6839215261486
 30
0.0
 11
108.73586
 21
107.6839215261486
 31
0.0
  0
LINE
  5
F3
330
80
100
AcDbEntity
  8
0
  6
Continuous
 62
     7
100
AcDbLine
 10
110.6342884061419
 20
109.869885681346
 30
0.0
 11
108.73586
 21
109.8700302540202
 31
0.0
  0
LINE
  5
F4
330
80
100
AcDbEntity
  8
0
  6
Continuous
 62
     7
100
AcDbLine
 10
8.73586
 20
107.6839215261486
 30
0.0
 11
8.73586
 21
113.4339215261488
 31
0.0
  0
LINE
  5
F5
330
80
100
AcDbEntity
  8
0
  6
Continuous
 62
     7
100
AcDbLine
 10
8.73586
 20
113.4339215261488
 30
0.0
 11
8.73586
 21
171.0729204738514
 31
0.0
  0
LINE
  5
F6
330
80
100
AcDbEntity
  8
0
  6
Continuous
 62
     7
100
AcDbLine
 10
41.33666268490362
 20
113.4339215261488
 30
0.0
 11
41.33666268490362
 21
112.3339215255396
 31
0.0
  0
LINE
  5
F7
330
80
100
AcDbEntity
  8
0
  6
Continuous
 62
     7
100
AcDbLine
 10
8.73586
 20
107.6839215261486
 30
0.0
 11
43.33666268489719
 21
107.6839215261486
 31
0.0
  0
LINE
  5
F8
330
80
100
AcDbEntity
  8
0
  6
Continuous
 62
     7
100
AcDbLine
 10
43.33666268489719
 20
107.6839215261486
 30
0.0
 11
43.33666268489719
 21
111.1839215255434
 31
0.0
  0
LINE
  5
F9
330
80
100
AcDbEntity
  8
0
  6
Continuous
 62
     7
100
AcDbLine
 10
8.73586
 20
113.4339215261488
 30
0.0
 11
41.33666268490362
 21
113.4339215261488
 31
0.0
  0
LINE
  5
FA
330
80
100
AcDbEntity
  8
0
  6
Continuous
 62
     7
100
AcDbLine
 10
8.73586
 20
171.0729204738514
 30
0.0
 11
108.73586
 21
171.0729204738514
 31
0.0
  0
LINE
  5
FB
330
80
100
AcDbEntity
  8
0
  6
Continuous
 62
     7
100
AcDbLine
 10
78.47686268967482
 20
107.6839215261486
 30
0.0
 11
76.93615483319593
 21
113.4339215261488
 31
0.0
  0
ENDBLK
  5
82
330
80
100
AcDbEntity
  8
0
100
AcDbBlockEnd
  0
BLOCK
  5
85
330
83
100
AcDbEntity
  8
0
100
AcDbBlockBegin
  2
Rcksicht1
 70
     0
 10
58.73586
 20
139.378421
 30
0.0
  3
Rcksicht1
  1
Rcksicht1
  0
INSERT
  5
84
330
83
100
AcDbEntity
  8
0
100
AcDbBlockReference
  2
2881007_DT_LAN_CAT_6_select__3
 10
8.73586
 20
107.6839215261486
 30
0.0
  0
ENDBLK
  5
86
330
83
100
AcDbEntity
  8
0
100
AcDbBlockEnd
  0
BLOCK
  5
88
330
87
100
AcDbEntity
  8
0
100
AcDbBlockBegin
  2
2881007_DT_LAN_CAT_6_select__4
 70
     0
 10
-40.12154398641333
 20
107.6839215177806
 30
0.0
  3
2881007_DT_LAN_CAT_6_select__4
  1
2881007_DT_LAN_CAT_6_select__4
  0
LINE
  5
FC
330
87
100
AcDbEntity
  8
0
  6
Continuous
 62
     7
100
AcDbLine
 10
-31.67154398641333
 20
109.869885672978
 30
0.0
 11
-31.67154398641333
 21
112.8198856644238
 31
0.0
  0
LINE
  5
FD
330
87
100
AcDbEntity
  8
0
  6
Continuous
 62
     7
100
AcDbLine
 10
-23.67154398641333
 20
109.869885672978
 30
0.0
 11
-31.67154398641333
 21
109.869885672978
 31
0.0
  0
LINE
  5
FE
330
87
100
AcDbEntity
  8
0
  6
Continuous
 62
     7
100
AcDbLine
 10
-23.67154398641333
 20
112.8198856644238
 30
0.0
 11
-23.67154398641333
 21
109.869885672978
 31
0.0
  0
LINE
  5
FF
330
87
100
AcDbEntity
  8
0
  6
Continuous
 62
     7
100
AcDbLine
 10
-22.41595442797213
 20
107.6839215177806
 30
0.0
 11
-32.92713354485453
 21
107.6839215177806
 31
0.0
  0
LINE
  5
100
330
87
100
AcDbEntity
  8
0
  6
Continuous
 62
     7
100
AcDbLine
 10
-40.12154398641333
 20
113.4339215177807
 30
0.0
 11
-32.92713354485453
 21
107.6839215177806
 31
0.0
  0
LINE
  5
101
330
87
100
AcDbEntity
  8
0
  6
Continuous
 62
     7
100
AcDbLine
 10
-23.67154398641333
 20
112.8198856644238
 30
0.0
 11
-31.67154398641333
 21
112.8198856644238
 31
0.0
  0
LINE
  5
102
330
87
100
AcDbEntity
  8
0
  6
Continuous
 62
     7
100
AcDbLine
 10
-15.22154398641334
 20
113.4339215177807
 30
0.0
 11
-22.41595442797213
 21
107.6839215177806
 31
0.0
  0
LINE
  5
103
330
87
100
AcDbEntity
  8
0
  6
Continuous
 62
     7
100
AcDbLine
 10
-40.12154398641333
 20
113.4339215177807
 30
0.0
 11
-40.12154398641333
 21
171.0729204654834
 31
0.0
  0
LINE
  5
104
330
87
100
AcDbEntity
  8
0
  6
Continuous
 62
     7
100
AcDbLine
 10
-40.12154398641333
 20
171.0729204654834
 30
0.0
 11
-16.22154398641334
 21
171.0729204654834
 31
0.0
  0
LINE
  5
105
330
87
100
AcDbEntity
  8
0
  6
Continuous
 62
     7
100
AcDbLine
 10
-16.22154398641334
 20
171.0729204654834
 30
0.0
 11
-16.22154398641334
 21
158.0729204654835
 31
0.0
  0
LINE
  5
106
330
87
100
AcDbEntity
  8
0
  6
Continuous
 62
     7
100
AcDbLine
 10
-16.22154398641334
 20
158.0729204654835
 30
0.0
 11
-15.22154398641334
 21
156.3408696579147
 31
0.0
  0
LINE
  5
107
330
87
100
AcDbEntity
  8
0
  6
Continuous
 62
     7
100
AcDbLine
 10
-15.22154398641334
 20
113.4339215177807
 30
0.0
 11
-15.22154398641334
 21
156.3408696579147
 31
0.0
  0
LINE
  5
108
330
87
100
AcDbEntity
  8
0
  6
Continuous
 62
     7
100
AcDbLine
 10
-36.32154398641333
 20
150.6799601017526
 30
0.0
 11
-36.32154398641333
 21
133.8799601017526
 31
0.0
  0
LINE
  5
109
330
87
100
AcDbEntity
  8
0
  6
Continuous
 62
     7
100
AcDbLine
 10
-23.57154398641333
 20
133.8799601017526
 30
0.0
 11
-23.57154398641333
 21
150.6799601017526
 31
0.0
  0
LINE
  5
10A
330
87
100
AcDbEntity
  8
0
  6
Continuous
 62
     7
100
AcDbLine
 10
-23.57154398641333
 20
150.6799601017526
 30
0.0
 11
-36.32154398641333
 21
150.6799601017526
 31
0.0
  0
LINE
  5
10B
330
87
100
AcDbEntity
  8
0
  6
Continuous
 62
     7
100
AcDbLine
 10
-36.32154398641333
 20
133.8799601017526
 30
0.0
 11
-23.57154398641333
 21
133.8799601017526
 31
0.0
  0
ENDBLK
  5
89
330
87
100
AcDbEntity
  8
0
100
AcDbBlockEnd
  0
BLOCK
  5
8C
330
8A
100
AcDbEntity
  8
0
100
AcDbBlockBegin
  2
SA_links1
 70
     0
 10
-27.67154398641333
 20
139.378420991632
 30
0.0
  3
SA_links1
  1
SA_links1
  0
INSERT
  5
8B
330
8A
100
AcDbEntity
  8
0
100
AcDbBlockReference
  2
2881007_DT_LAN_CAT_6_select__4
 10
-40.12154398641333
 20
107.6839215177806
 30
0.0
  0
DIMENSION
  5
117
330
8A
100
AcDbEntity
  8
1
100
AcDbDimension
  2
*D17
 10
-40.12154398641333
 20
98.6717788562857
 30
0.0
 11
-28.73442431095682
 21
102.4217788562857
 31
0.0
 70
    32
  1
<>
 71
     5
 42
-1.0
 53
0.00013888888889
  3
ME10_DIM_10
100
AcDbAlignedDimension
 13
-15.22154398641334
 23
113.4339215177807
 33
0.0
 14
-40.12154398641333
 24
113.4339215177807
 34
0.0
100
AcDbRotatedDimension
  0
ENDBLK
  5
8D
330
8A
100
AcDbEntity
  8
0
100
AcDbBlockEnd
  0
BLOCK
  5
8F
330
8E
100
AcDbEntity
  8
0
100
AcDbBlockBegin
  2
2881007_DT_LAN_CAT_6_select__5
 70
     0
 10
-246.16414
 20
107.6839215261486
 30
0.0
  3
2881007_DT_LAN_CAT_6_select__5
  1
2881007_DT_LAN_CAT_6_select__5
  0
LINE
  5
118
330
8E
100
AcDbEntity
  8
0
  6
Continuous
 62
     7
100
AcDbLine
 10
-238.9697295584412
 20
107.6839215261486
 30
0.0
 11
-228.4585504415588
 21
107.6839215261486
 31
0.0
  0
LINE
  5
119
330
8E
100
AcDbEntity
  8
0
  6
Continuous
 62
     7
100
AcDbLine
 10
-245.16414
 20
171.0729204738514
 30
0.0
 11
-245.16414
 21
158.0729204738515
 31
0.0
  0
LINE
  5
11A
330
8E
100
AcDbEntity
  8
0
  6
Continuous
 62
     7
100
AcDbLine
 10
-221.26414
 20
171.0729204738514
 30
0.0
 11
-245.16414
 21
171.0729204738514
 31
0.0
  0
LINE
  5
11B
330
8E
100
AcDbEntity
  8
0
  6
Continuous
 62
     7
100
AcDbLine
 10
-221.26414
 20
113.4339215261488
 30
0.0
 11
-221.26414
 21
171.0729204738514
 31
0.0
  0
LINE
  5
11C
330
8E
100
AcDbEntity
  8
0
  6
Continuous
 62
     7
100
AcDbLine
 10
-238.9697295584412
 20
107.6839215261486
 30
0.0
 11
-246.16414
 21
113.4339215261487
 31
0.0
  0
LINE
  5
11D
330
8E
100
AcDbEntity
  8
0
  6
Continuous
 62
     7
100
AcDbLine
 10
-246.16414
 20
156.3408696662825
 30
0.0
 11
-245.16414
 21
158.0729204738515
 31
0.0
  0
LINE
  5
11E
330
8E
100
AcDbEntity
  8
0
  6
Continuous
 62
     7
100
AcDbLine
 10
-246.16414
 20
156.3408696662825
 30
0.0
 11
-246.16414
 21
113.4339215261487
 31
0.0
  0
LINE
  5
11F
330
8E
100
AcDbEntity
  8
0
  6
Continuous
 62
     7
100
AcDbLine
 10
-225.06414
 20
133.8799601101206
 30
0.0
 11
-225.06414
 21
150.6799601101206
 31
0.0
  0
LINE
  5
120
330
8E
100
AcDbEntity
  8
0
  6
Continuous
 62
     7
100
AcDbLine
 10
-237.81414
 20
150.6799601101206
 30
0.0
 11
-237.81414
 21
133.8799601101206
 31
0.0
  0
LINE
  5
121
330
8E
100
AcDbEntity
  8
0
  6
Continuous
 62
     7
100
AcDbLine
 10
-237.81414
 20
133.8799601101206
 30
0.0
 11
-225.06414
 21
133.8799601101206
 31
0.0
  0
LINE
  5
122
330
8E
100
AcDbEntity
  8
0
  6
Continuous
 62
     7
100
AcDbLine
 10
-225.06414
 20
150.6799601101206
 30
0.0
 11
-237.81414
 21
150.6799601101206
 31
0.0
  0
LINE
  5
123
330
8E
100
AcDbEntity
  8
0
  6
Continuous
 62
     7
100
AcDbLine
 10
-228.4585504415588
 20
107.6839215261486
 30
0.0
 11
-221.26414
 21
113.4339215261488
 31
0.0
  0
ENDBLK
  5
90
330
8E
100
AcDbEntity
  8
0
100
AcDbBlockEnd
  0
BLOCK
  5
93
330
91
100
AcDbEntity
  8
0
100
AcDbBlockBegin
  2
SA_rechts1
 70
     0
 10
-233.71414
 20
139.378421
 30
0.0
  3
SA_rechts1
  1
SA_rechts1
  0
INSERT
  5
92
330
91
100
AcDbEntity
  8
0
100
AcDbBlockReference
  2
2881007_DT_LAN_CAT_6_select__5
 10
-246.16414
 20
107.6839215261486
 30
0.0
  0
ENDBLK
  5
94
330
91
100
AcDbEntity
  8
0
100
AcDbBlockEnd
  0
BLOCK
  5
96
330
95
100
AcDbEntity
  8
0
100
AcDbBlockBegin
  2
2881007_DT_LAN_CAT_6_select__6
 70
     0
 10
-189.6127933953618
 20
107.6839215177806
 30
0.0
  3
2881007_DT_LAN_CAT_6_select__6
  1
2881007_DT_LAN_CAT_6_select__6
  0
LINE
  5
124
330
95
100
AcDbEntity
  8
0
  6
Continuous
 62
     7
100
AcDbLine
 10
-187.7141403352975
 20
111.0701299067278
 30
0.0
 11
-188.1436958601707
 21
111.0701299067278
 31
0.0
  0
LINE
  5
125
330
95
100
AcDbEntity
  8
0
  6
Continuous
 62
     7
100
AcDbLine
 10
-188.1436958601707
 20
111.0701299067278
 30
0.0
 11
-188.4523779943244
 21
112.81997403455
 31
0.0
  0
LINE
  5
126
330
95
100
AcDbEntity
  8
0
  6
Continuous
 62
     7
100
AcDbLine
 10
-188.4523779943244
 20
112.81997403455
 30
0.0
 11
-189.6127933953618
 21
112.8198856644239
 31
0.0
  0
LINE
  5
127
330
95
100
AcDbEntity
  8
0
  6
Continuous
 62
     7
100
AcDbLine
 10
-189.6127933953618
 20
112.8198856644239
 30
0.0
 11
-189.6125687414394
 21
109.869885672978
 31
0.0
  0
LINE
  5
128
330
95
100
AcDbEntity
  8
0
  6
Continuous
 62
     7
100
AcDbLine
 10
-189.6125687414394
 20
109.869885672978
 30
0.0
 11
-187.7141403352975
 21
109.8700302456522
 31
0.0
  0
LINE
  5
129
330
95
100
AcDbEntity
  8
0
  6
Continuous
 62
     7
100
AcDbLine
 10
-187.7141403352975
 20
111.0701299067278
 30
0.0
 11
-187.7141403352975
 21
109.8700302456522
 31
0.0
  0
LINE
  5
12A
330
95
100
AcDbEntity
  8
0
  6
Continuous
 62
     7
100
AcDbLine
 10
-187.7141403352975
 20
109.8700302456522
 30
0.0
 11
-187.7141403352975
 21
107.6839215177806
 31
0.0
  0
LINE
  5
12B
330
95
100
AcDbEntity
  8
0
  6
Continuous
 62
     7
100
AcDbLine
 10
-187.7141403352975
 20
113.4339215177808
 30
0.0
 11
-187.7141403352975
 21
111.0701299067278
 31
0.0
  0
LINE
  5
12C
330
95
100
AcDbEntity
  8
0
  6
Continuous
 62
     7
100
AcDbLine
 10
-187.7141403352975
 20
158.0729204654836
 30
0.0
 11
-187.7141403352975
 21
156.3408696579147
 31
0.0
  0
LINE
  5
12D
330
95
100
AcDbEntity
  8
0
  6
Continuous
 62
     7
100
AcDbLine
 10
-187.7141403352975
 20
171.0729204654834
 30
0.0
 11
-187.7141403352975
 21
158.0729204654836
 31
0.0
  0
LINE
  5
12E
330
95
100
AcDbEntity
  8
0
  6
Continuous
 62
     7
100
AcDbLine
 10
-187.7141403352975
 20
113.4339215177808
 30
0.0
 11
-187.7141403352975
 21
156.3408696579147
 31
0.0
  0
LINE
  5
12F
330
95
100
AcDbEntity
  8
0
  6
Continuous
 62
     7
100
AcDbLine
 10
-87.71414033529749
 20
158.0729204654835
 30
0.0
 11
-187.7141403352975
 21
158.0729204654836
 31
0.0
  0
LINE
  5
130
330
95
100
AcDbEntity
  8
0
  6
Continuous
 62
     7
100
AcDbLine
 10
-157.4551430249723
 20
107.6839215177806
 30
0.0
 11
-187.7141403352975
 21
107.6839215177806
 31
0.0
  0
LINE
  5
131
330
95
100
AcDbEntity
  8
0
  6
Continuous
 62
     7
100
AcDbLine
 10
-120.3149430202011
 20
113.4339215177808
 30
0.0
 11
-87.71414033529749
 21
113.4339215177808
 31
0.0
  0
LINE
  5
132
330
95
100
AcDbEntity
  8
0
  6
Continuous
 62
     7
100
AcDbLine
 10
-187.7141403352975
 20
113.4339215177808
 30
0.0
 11
-155.9144351684934
 21
113.4339215177808
 31
0.0
  0
LINE
  5
133
330
95
100
AcDbEntity
  8
0
  6
Continuous
 62
     7
100
AcDbLine
 10
-155.9144351684934
 20
113.4339215177808
 30
0.0
 11
-120.3149430202011
 21
113.4339215177808
 31
0.0
  0
LINE
  5
134
330
95
100
AcDbEntity
  8
0
  6
Continuous
 62
     7
100
AcDbLine
 10
-87.71414033529749
 20
107.6839215177806
 30
0.0
 11
-87.71414033529749
 21
113.4339215177808
 31
0.0
  0
LINE
  5
135
330
95
100
AcDbEntity
  8
0
  6
Continuous
 62
     7
100
AcDbLine
 10
-87.71414033529749
 20
156.3408696579145
 30
0.0
 11
-87.71414033529749
 21
158.0729204654835
 31
0.0
  0
LINE
  5
136
330
95
100
AcDbEntity
  8
0
  6
Continuous
 62
     7
100
AcDbLine
 10
-87.71414033529749
 20
171.0729204654834
 30
0.0
 11
-87.71414033529749
 21
158.0729204654835
 31
0.0
  0
LINE
  5
137
330
95
100
AcDbEntity
  8
0
  6
Continuous
 62
     7
100
AcDbLine
 10
-87.71414033529749
 20
156.3408696579145
 30
0.0
 11
-87.71414033529749
 21
113.4339215177808
 31
0.0
  0
LINE
  5
138
330
95
100
AcDbEntity
  8
0
  6
Continuous
 62
     7
100
AcDbLine
 10
-122.3149430201947
 20
107.6839215177806
 30
0.0
 11
-122.3149430201947
 21
111.1839215171754
 31
0.0
  0
LINE
  5
139
330
95
100
AcDbEntity
  8
0
  6
Continuous
 62
     7
100
AcDbLine
 10
-120.3149430202011
 20
112.3339215171716
 30
0.0
 11
-120.3149430202011
 21
113.4339215177808
 31
0.0
  0
LINE
  5
13A
330
95
100
AcDbEntity
  8
0
  6
Continuous
 62
     7
100
AcDbLine
 10
-122.3149430201947
 20
111.1839215171754
 30
0.0
 11
-120.3149430202011
 21
112.3339215171716
 31
0.0
  0
LINE
  5
13B
330
95
100
AcDbEntity
  8
0
  6
Continuous
 62
     7
100
AcDbLine
 10
-87.71414033529749
 20
107.6839215177806
 30
0.0
 11
-122.3149430201947
 21
107.6839215177806
 31
0.0
  0
LINE
  5
13C
330
95
100
AcDbEntity
  8
0
  6
Continuous
 62
     7
100
AcDbLine
 10
-87.71414033529749
 20
171.0729204654834
 30
0.0
 11
-187.7141403352975
 21
171.0729204654834
 31
0.0
  0
LINE
  5
13D
330
95
100
AcDbEntity
  8
0
  6
Continuous
 62
     7
100
AcDbLine
 10
-87.71414033529749
 20
156.3408696579145
 30
0.0
 11
-187.7141403352975
 21
156.3408696579147
 31
0.0
  0
LINE
  5
13E
330
95
100
AcDbEntity
  8
0
  6
Continuous
 62
     7
100
AcDbLine
 10
-157.4551430249723
 20
107.6839215177806
 30
0.0
 11
-155.9144351684934
 21
113.4339215177808
 31
0.0
  0
ENDBLK
  5
97
330
95
100
AcDbEntity
  8
0
100
AcDbBlockEnd
  0
BLOCK
  5
9A
330
98
100
AcDbEntity
  8
0
100
AcDbBlockBegin
  2
Vordans1
 70
     0
 10
-137.7141403352975
 20
139.378420991632
 30
0.0
  3
Vordans1
  1
Vordans1
  0
INSERT
  5
99
330
98
100
AcDbEntity
  8
0
100
AcDbBlockReference
  2
2881007_DT_LAN_CAT_6_select__6
 10
-189.6127933953618
 20
107.6839215177806
 30
0.0
  0
LINE
  5
13F
330
98
100
AcDbEntity
  8
1
  6
DOT_CENTER
 62
     2
100
AcDbLine
 10
-137.8149430202011
 20
115.968658036155
 30
0.0
 11
-137.8149430202011
 21
106.968658036155
 31
0.0
  0
DIMENSION
  5
14A
330
98
100
AcDbEntity
  8
1
100
AcDbDimension
  2
*D18
 10
-187.7141403352975
 20
80.20651429792049
 30
0.0
 11
-142.0569395239386
 21
83.95651429792049
 31
0.0
 70
    33
  1
<>
 71
     5
 42
-1.0
 53
0.00013888888889
  3
ME10_DIM_11
100
AcDbAlignedDimension
 13
-87.71414033529749
 23
107.6839215177806
 33
0.0
 14
-187.7141403352975
 24
107.6839215177806
 34
0.0
  0
DIMENSION
  5
155
330
98
100
AcDbEntity
  8
1
100
AcDbDimension
  2
*D19
 10
-70.57615859087583
 20
107.6839215177806
 30
0.0
 11
-74.50115859087583
 21
141.2526603425452
 31
0.0
 70
    32
  1
<>)
 71
     5
 42
-1.0
 53
90.0
  3
ME10_DIM_12
100
AcDbAlignedDimension
 13
-187.7141403352975
 23
171.0729204654834
 33
0.0
 14
-187.7141403352975
 24
107.6839215177806
 34
0.0
 50
90.0
100
AcDbRotatedDimension
  0
DIMENSION
  5
162
330
98
100
AcDbEntity
  8
1
100
AcDbDimension
  2
*D20
 10
-95.57615859087579
 20
107.6839215177806
 30
0.0
 11
-99.50115859087579
 21
98.95651429792049
 31
0.0
 70
    32
  1
<>
 71
     5
 42
-1.0
 53
90.0
  3
ME10_DIM_13
100
AcDbAlignedDimension
 13
-155.9144351684934
 23
113.4339215177808
 33
0.0
 14
-157.4551430249723
 24
107.6839215177806
 34
0.0
 50
90.0
100
AcDbRotatedDimension
  0
DIMENSION
  5
16D
330
98
100
AcDbEntity
  8
1
100
AcDbDimension
  2
*D21
 10
-78.57615859087576
 20
113.4339215177808
 30
0.0
 11
-82.50115859087576
 21
143.279563312968
 31
0.0
 70
    32
  1
<>
 71
     5
 42
-1.0
 53
90.0
  3
ME10_DIM_14
100
AcDbAlignedDimension
 13
-187.7141403352975
 23
171.0729204654834
 33
0.0
 14
-155.9144351684934
 24
113.4339215177808
 34
0.0
 50
90.0
100
AcDbRotatedDimension
  0
DIMENSION
  5
178
330
98
100
AcDbEntity
  8
1
100
AcDbDimension
  2
*D22
 10
-137.8149430202011
 20
98.149966379132
 30
0.0
 11
-129.403286815984
 21
102.074966379132
 31
0.0
 70
    32
  1
<>
 71
     5
 42
-1.0
 53
0.00013888888889
  3
ME10_DIM_15
100
AcDbAlignedDimension
 13
-120.3149430202011
 23
112.3339215171716
 33
0.0
 14
-137.8149430202011
 24
106.968658036155
 34
0.0
100
AcDbRotatedDimension
  0
DIMENSION
  5
183
330
98
100
AcDbEntity
  8
1
100
AcDbDimension
  2
*D23
 10
-137.8149430202011
 20
90.2070401783881
 30
0.0
 11
-114.2460154402955
 21
94.1320401783881
 31
0.0
 70
    32
  1
<>
 71
     5
 42
-1.0
 53
0.00013888888889
  3
ME10_DIM_16
100
AcDbAlignedDimension
 13
-87.71414033529749
 23
113.4339215177808
 33
0.0
 14
-137.8149430202011
 24
106.968658036155
 34
0.0
100
AcDbRotatedDimension
  0
DIMENSION
  5
18E
330
98
100
AcDbEntity
  8
1
100
AcDbDimension
  2
*D24
 10
-87.7141403352975
 20
72.8702467701365
 30
0.0
 11
-141.3389494369
 21
76.2952467701365
 31
0.0
 70
    32
  1
<>
 71
     5
 42
-1.0
 53
0.00013888888889
  3
ME10_DIM_17
100
AcDbAlignedDimension
 13
-189.6125687414394
 23
109.869885672978
 33
0.0
 14
-87.71414033529749
 24
107.6839215177806
 34
0.0
100
AcDbRotatedDimension
  0
ENDBLK
  5
9B
330
98
100
AcDbEntity
  8
0
100
AcDbBlockEnd
  0
BLOCK
  5
9D
330
9C
100
AcDbEntity
  8
0
100
AcDbBlockBegin
  2
_rahmen
 70
     0
 10
136.2858600000016
 20
-72.57552913273832
 30
0.0
  3
_rahmen
  1
_rahmen
  0
POINT
  5
18F
330
9C
100
AcDbEntity
  8
1
 62
     3
 60
     1
100
AcDbPoint
 10
72.78586000000388
 20
-46.32552913273889
 30
0.0
  0
LINE
  5
190
330
9C
100
AcDbEntity
  8
1
  6
Continuous
 62
     7
100
AcDbLine
 10
72.78586000000388
 20
-46.32552913273889
 30
0.0
 11
66.04105547324977
 21
-46.32552913273889
 31
0.0
  0
LINE
  5
191
330
9C
100
AcDbEntity
  8
1
  6
Continuous
 62
     7
100
AcDbLine
 10
72.78586000000388
 20
-50.57552913273889
 30
0.0
 11
72.78586000000388
 21
-46.32552913273889
 31
0.0
  0
LINE
  5
192
330
9C
100
AcDbEntity
  8
1
  6
Continuous
 62
     2
100
AcDbLine
 10
107.7265966847923
 20
-52.12574841177104
 30
0.0
 11
107.7265966847924
 21
-54.18314437662468
 31
0.0
  0
LINE
  5
193
330
9C
100
AcDbEntity
  8
1
  6
Continuous
 62
     6
100
AcDbLine
 10
-137.0474733333316
 20
-67.57552913273832
 30
0.0
 11
-115.7141399999983
 21
-67.57552913273878
 31
0.0
  0
LINE
  5
194
330
9C
100
AcDbEntity
  8
1
  6
Continuous
 62
     6
100
AcDbLine
 10
136.2858600000015
 20
-67.57552913273878
 30
0.0
 11
136.2858600000011
 21
-59.07552913273889
 31
0.0
  0
LINE
  5
195
330
9C
100
AcDbEntity
  8
1
  6
Continuous
 62
     6
100
AcDbLine
 10
-258.7141399999982
 20
-67.57552913273832
 30
0.0
 11
-258.7141399999992
 21
219.4244708672619
 31
0.0
  0
LINE
  5
196
330
9C
100
AcDbEntity
  8
1
  6
Continuous
 62
     2
100
AcDbLine
 10
-278.7141399999993
 20
75.92447086726168
 30
0.0
 11
-278.7141399999993
 21
-72.57552913273832
 31
0.0
  0
LINE
  5
197
330
9C
100
AcDbEntity
  8
1
  6
Continuous
 62
     2
100
AcDbLine
 10
-278.7141399999993
 20
75.92447086726168
 30
0.0
 11
-268.7141399999992
 21
75.92447086726168
 31
0.0
  0
LINE
  5
198
330
9C
100
AcDbEntity
  8
1
  6
Continuous
 62
     2
100
AcDbLine
 10
-278.7141399999993
 20
224.4244708672617
 30
0.0
 11
-278.7141399999993
 21
75.92447086726168
 31
0.0
  0
LINE
  5
199
330
9C
100
AcDbEntity
  8
1
  6
Continuous
 62
     2
100
AcDbLine
 10
-48.71414000000122
 20
224.4244708672617
 30
0.0
 11
-68.71413999999842
 21
224.4244708672617
 31
0.0
  0
LINE
  5
19A
330
9C
100
AcDbEntity
  8
1
  6
Continuous
 62
     2
100
AcDbLine
 10
-48.71414000000122
 20
224.4244708672617
 30
0.0
 11
-48.71414000000122
 21
220.4244708672619
 31
0.0
  0
LINE
  5
19B
330
9C
100
AcDbEntity
  8
1
  6
Continuous
 62
     2
100
AcDbLine
 10
-258.7141399999992
 20
224.4244708672617
 30
0.0
 11
-278.7141399999993
 21
224.4244708672617
 31
0.0
  0
LINE
  5
19C
330
9C
100
AcDbEntity
  8
1
  6
Continuous
 62
     2
100
AcDbLine
 10
-258.7141399999992
 20
224.4244708672617
 30
0.0
 11
-258.7141399999992
 21
220.4244708672619
 31
0.0
  0
LINE
  5
19D
330
9C
100
AcDbEntity
  8
1
  6
Continuous
 62
     2
100
AcDbLine
 10
-205.380806666665
 20
224.4244708672617
 30
0.0
 11
-258.7141399999992
 21
224.4244708672617
 31
0.0
  0
LINE
  5
19E
330
9C
100
AcDbEntity
  8
1
  6
Continuous
 62
     6
100
AcDbLine
 10
-205.380806666665
 20
219.4244708672619
 30
0.0
 11
-137.0474733333316
 21
219.4244708672617
 31
0.0
  0
LINE
  5
19F
330
9C
100
AcDbEntity
  8
1
  6
Continuous
 62
     2
100
AcDbLine
 10
-205.380806666665
 20
219.4244708672619
 30
0.0
 11
-205.380806666665
 21
224.4244708672617
 31
0.0
  0
LINE
  5
1A0
330
9C
100
AcDbEntity
  8
1
  6
Continuous
 62
     2
100
AcDbLine
 10
-137.0474733333316
 20
224.4244708672617
 30
0.0
 11
-205.380806666665
 21
224.4244708672617
 31
0.0
  0
LINE
  5
1A1
330
9C
100
AcDbEntity
  8
1
  6
Continuous
 62
     6
100
AcDbLine
 10
-137.0474733333316
 20
219.4244708672617
 30
0.0
 11
-68.71413999999842
 21
219.4244708672617
 31
0.0
  0
LINE
  5
1A2
330
9C
100
AcDbEntity
  8
1
  6
Continuous
 62
     2
100
AcDbLine
 10
-137.0474733333316
 20
219.4244708672617
 30
0.0
 11
-137.0474733333316
 21
224.4244708672617
 31
0.0
  0
LINE
  5
1A3
330
9C
100
AcDbEntity
  8
1
  6
Continuous
 62
     2
100
AcDbLine
 10
-68.71413999999842
 20
224.4244708672617
 30
0.0
 11
-137.0474733333316
 21
224.4244708672617
 31
0.0
  0
LINE
  5
1A4
330
9C
100
AcDbEntity
  8
1
  6
Continuous
 62
     6
100
AcDbLine
 10
-68.71413999999842
 20
219.4244708672617
 30
0.0
 11
-0.38080666666502
 21
219.4244708672617
 31
0.0
  0
LINE
  5
1A5
330
9C
100
AcDbEntity
  8
1
  6
Continuous
 62
     2
100
AcDbLine
 10
-68.71413999999842
 20
219.4244708672617
 30
0.0
 11
-68.71413999999842
 21
224.4244708672617
 31
0.0
  0
LINE
  5
1A6
330
9C
100
AcDbEntity
  8
1
  6
Continuous
 62
     2
100
AcDbLine
 10
-0.38080666666502
 20
224.4244708672617
 30
0.0
 11
-48.71414000000122
 21
224.4244708672617
 31
0.0
  0
LINE
  5
1A7
330
9C
100
AcDbEntity
  8
1
  6
Continuous
 62
     6
100
AcDbLine
 10
-0.38080666666502
 20
219.4244708672617
 30
0.0
 11
67.95252666666818
 21
219.4244708672617
 31
0.0
  0
LINE
  5
1A8
330
9C
100
AcDbEntity
  8
1
  6
Continuous
 62
     2
100
AcDbLine
 10
-0.38080666666502
 20
219.4244708672617
 30
0.0
 11
-0.38080666666502
 21
224.4244708672617
 31
0.0
  0
LINE
  5
1A9
330
9C
100
AcDbEntity
  8
1
  6
Continuous
 62
     2
100
AcDbLine
 10
67.95252666666818
 20
224.4244708672617
 30
0.0
 11
-0.38080666666502
 21
224.4244708672617
 31
0.0
  0
LINE
  5
1AA
330
9C
100
AcDbEntity
  8
1
  6
Continuous
 62
     6
100
AcDbLine
 10
67.95252666666818
 20
219.4244708672617
 30
0.0
 11
136.2858599999991
 21
219.4244708672617
 31
0.0
  0
LINE
  5
1AB
330
9C
100
AcDbEntity
  8
1
  6
Continuous
 62
     2
100
AcDbLine
 10
67.95252666666818
 20
219.4244708672617
 30
0.0
 11
67.95252666666818
 21
224.4244708672617
 31
0.0
  0
LINE
  5
1AC
330
9C
100
AcDbEntity
  8
1
  6
Continuous
 62
     2
100
AcDbLine
 10
136.2858599999991
 20
224.4244708672617
 30
0.0
 11
67.95252666666818
 21
224.4244708672617
 31
0.0
  0
LINE
  5
1AD
330
9C
100
AcDbEntity
  8
1
  6
Continuous
 62
     6
100
AcDbLine
 10
-258.7141399999992
 20
219.4244708672619
 30
0.0
 11
-205.380806666665
 21
219.4244708672619
 31
0.0
  0
LINE
  5
1AE
330
9C
100
AcDbEntity
  8
1
  6
Continuous
 62
     6
100
AcDbLine
 10
136.2858600000016
 20
47.22447086726186
 30
0.0
 11
136.2858600000015
 21
-10.17552913273823
 31
0.0
  0
LINE
  5
1AF
330
9C
100
AcDbEntity
  8
1
  6
Continuous
 62
     2
100
AcDbLine
 10
136.2858600000016
 20
47.22447086726186
 30
0.0
 11
141.2858599999991
 21
47.22447086726186
 31
0.0
  0
LINE
  5
1B0
330
9C
100
AcDbEntity
  8
1
  6
Continuous
 62
     2
100
AcDbLine
 10
141.2858599999991
 20
104.6244708672617
 30
0.0
 11
141.2858599999991
 21
47.22447086726186
 31
0.0
  0
LINE
  5
1B1
330
9C
100
AcDbEntity
  8
1
  6
Continuous
 62
     6
100
AcDbLine
 10
136.2858600000016
 20
104.6244708672617
 30
0.0
 11
136.2858600000016
 21
47.22447086726186
 31
0.0
  0
LINE
  5
1B2
330
9C
100
AcDbEntity
  8
1
  6
Continuous
 62
     2
100
AcDbLine
 10
136.2858600000016
 20
104.6244708672617
 30
0.0
 11
141.2858599999991
 21
104.6244708672617
 31
0.0
  0
LINE
  5
1B3
330
9C
100
AcDbEntity
  8
1
  6
Continuous
 62
     2
100
AcDbLine
 10
141.2858599999991
 20
162.0244708672616
 30
0.0
 11
141.2858599999991
 21
104.6244708672617
 31
0.0
  0
LINE
  5
1B4
330
9C
100
AcDbEntity
  8
1
  6
Continuous
 62
     6
100
AcDbLine
 10
136.2858599999996
 20
162.0244708672616
 30
0.0
 11
136.2858600000016
 21
104.6244708672617
 31
0.0
  0
LINE
  5
1B5
330
9C
100
AcDbEntity
  8
1
  6
Continuous
 62
     2
100
AcDbLine
 10
136.2858599999996
 20
162.0244708672616
 30
0.0
 11
141.2858599999991
 21
162.0244708672616
 31
0.0
  0
LINE
  5
1B6
330
9C
100
AcDbEntity
  8
1
  6
Continuous
 62
     2
100
AcDbLine
 10
141.2858599999991
 20
219.4244708672617
 30
0.0
 11
141.2858599999991
 21
162.0244708672616
 31
0.0
  0
LINE
  5
1B7
330
9C
100
AcDbEntity
  8
1
  6
Continuous
 62
     2
100
AcDbLine
 10
136.2858599999991
 20
219.4244708672617
 30
0.0
 11
141.2858599999991
 21
219.4244708672617
 31
0.0
  0
LINE
  5
1B8
330
9C
100
AcDbEntity
  8
1
  6
Continuous
 62
     2
100
AcDbLine
 10
136.2858599999991
 20
219.4244708672617
 30
0.0
 11
136.2858599999991
 21
224.4244708672617
 31
0.0
  0
LINE
  5
1B9
330
9C
100
AcDbEntity
  8
1
  6
Continuous
 62
     2
100
AcDbLine
 10
141.2858599999991
 20
224.4244708672617
 30
0.0
 11
141.2858599999991
 21
219.4244708672617
 31
0.0
  0
LINE
  5
1BA
330
9C
100
AcDbEntity
  8
1
  6
Continuous
 62
     6
100
AcDbLine
 10
136.2858599999991
 20
219.4244708672617
 30
0.0
 11
136.2858599999996
 21
162.0244708672616
 31
0.0
  0
LINE
  5
1BB
330
9C
100
AcDbEntity
  8
1
  6
Continuous
 62
     2
100
AcDbLine
 10
141.2858599999991
 20
224.4244708672617
 30
0.0
 11
136.2858599999991
 21
224.4244708672617
 31
0.0
  0
LINE
  5
1BC
330
9C
100
AcDbEntity
  8
1
  6
Continuous
 62
     2
100
AcDbLine
 10
141.2858599999991
 20
-67.57552913273832
 30
0.0
 11
141.2858599999991
 21
-10.17552913273823
 31
0.0
  0
LINE
  5
1BD
330
9C
100
AcDbEntity
  8
1
  6
Continuous
 62
     2
100
AcDbLine
 10
141.2858599999991
 20
-67.57552913273832
 30
0.0
 11
141.2858599999991
 21
-72.57552913273832
 31
0.0
  0
LINE
  5
1BE
330
9C
100
AcDbEntity
  8
1
  6
Continuous
 62
     2
100
AcDbLine
 10
141.2858599999991
 20
-72.57552913273832
 30
0.0
 11
136.2858600000016
 21
-72.57552913273832
 31
0.0
  0
LINE
  5
1BF
330
9C
100
AcDbEntity
  8
1
  6
Continuous
 62
     2
100
AcDbLine
 10
-0.38080666666502
 20
-72.57552913273832
 30
0.0
 11
67.95252666666818
 21
-72.57552913273832
 31
0.0
  0
LINE
  5
1C0
330
9C
100
AcDbEntity
  8
1
  6
Continuous
 62
     2
100
AcDbLine
 10
-48.71414000000122
 20
-72.57552913273832
 30
0.0
 11
-0.38080666666502
 21
-72.57552913273832
 31
0.0
  0
LINE
  5
1C1
330
9C
100
AcDbEntity
  8
1
  6
Continuous
 62
     2
100
AcDbLine
 10
-48.71414000000122
 20
-72.57552913273832
 30
0.0
 11
-48.71414000000122
 21
-68.57552913273832
 31
0.0
  0
LINE
  5
1C2
330
9C
100
AcDbEntity
  8
1
  6
Continuous
 62
     2
100
AcDbLine
 10
-48.71414000000122
 20
-72.57552913273832
 30
0.0
 11
-68.71413999999842
 21
-72.57552913273832
 31
0.0
  0
LINE
  5
1C3
330
9C
100
AcDbEntity
  8
1
  6
Continuous
 62
     2
100
AcDbLine
 10
-258.7141399999992
 20
-72.57552913273832
 30
0.0
 11
-205.380806666665
 21
-72.57552913273832
 31
0.0
  0
LINE
  5
1C4
330
9C
100
AcDbEntity
  8
1
  6
Continuous
 62
     2
100
AcDbLine
 10
-258.7141399999992
 20
-72.57552913273832
 30
0.0
 11
-258.7141399999992
 21
-68.57552913273832
 31
0.0
  0
LINE
  5
1C5
330
9C
100
AcDbEntity
  8
1
  6
Continuous
 62
     2
100
AcDbLine
 10
-137.0474733333316
 20
-72.57552913273832
 30
0.0
 11
-137.0474733333316
 21
-67.57552913273832
 31
0.0
  0
LINE
  5
1C6
330
9C
100
AcDbEntity
  8
1
  6
Continuous
 62
     6
100
AcDbLine
 10
-205.380806666665
 20
-67.57552913273832
 30
0.0
 11
-258.7141399999982
 21
-67.57552913273832
 31
0.0
  0
LINE
  5
1C7
330
9C
100
AcDbEntity
  8
1
  6
Continuous
 62
     6
100
AcDbLine
 10
-205.380806666665
 20
-67.57552913273832
 30
0.0
 11
-137.0474733333316
 21
-67.57552913273832
 31
0.0
  0
LINE
  5
1C8
330
9C
100
AcDbEntity
  8
1
  6
Continuous
 62
     2
100
AcDbLine
 10
-205.380806666665
 20
-72.57552913273832
 30
0.0
 11
-137.0474733333316
 21
-72.57552913273832
 31
0.0
  0
LINE
  5
1C9
330
9C
100
AcDbEntity
  8
1
  6
Continuous
 62
     2
100
AcDbLine
 10
-205.380806666665
 20
-72.57552913273832
 30
0.0
 11
-205.380806666665
 21
-67.57552913273832
 31
0.0
  0
LINE
  5
1CA
330
9C
100
AcDbEntity
  8
1
  6
Continuous
 62
     2
100
AcDbLine
 10
-258.7141399999992
 20
-72.57552913273832
 30
0.0
 11
-278.7141399999993
 21
-72.57552913273832
 31
0.0
  0
LINE
  5
1CB
330
9C
100
AcDbEntity
  8
1
  6
Continuous
 62
     2
100
AcDbLine
 10
141.2858599999991
 20
-10.17552913273823
 30
0.0
 11
136.2858600000015
 21
-10.17552913273823
 31
0.0
  0
LINE
  5
1CC
330
9C
100
AcDbEntity
  8
1
  6
Continuous
 62
     2
100
AcDbLine
 10
141.2858599999991
 20
-10.17552913273823
 30
0.0
 11
141.2858599999991
 21
47.22447086726186
 31
0.0
  0
LINE
  5
1CD
330
9C
100
AcDbEntity
  8
1
  6
Continuous
 62
     2
100
AcDbLine
 10
-68.71413999999842
 20
-72.57552913273832
 30
0.0
 11
-68.71413999999842
 21
-67.57552913273832
 31
0.0
  0
LINE
  5
1CE
330
9C
100
AcDbEntity
  8
1
  6
Continuous
 62
     2
100
AcDbLine
 10
-0.38080666666502
 20
-72.57552913273832
 30
0.0
 11
-0.38080666666502
 21
-67.57552913273832
 31
0.0
  0
LINE
  5
1CF
330
9C
100
AcDbEntity
  8
1
  6
Continuous
 62
     2
100
AcDbLine
 10
67.95252666666818
 20
-72.57552913273832
 30
0.0
 11
67.95252666666818
 21
-67.57552913273832
 31
0.0
  0
LINE
  5
1D0
330
9C
100
AcDbEntity
  8
1
  6
Continuous
 62
     2
100
AcDbLine
 10
67.95252666666818
 20
-72.57552913273832
 30
0.0
 11
136.2858600000016
 21
-72.57552913273832
 31
0.0
  0
LINE
  5
1D1
330
9C
100
AcDbEntity
  8
1
  6
Continuous
 62
     2
100
AcDbLine
 10
-68.71413999999842
 20
-72.57552913273832
 30
0.0
 11
-137.0474733333316
 21
-72.57552913273832
 31
0.0
  0
LINE
  5
1D2
330
9C
100
AcDbEntity
  8
1
  6
Continuous
 62
     2
100
AcDbLine
 10
15.02132460776517
 20
-54.20052913273889
 30
0.0
 11
15.02132460776517
 21
-51.20052913273889
 31
0.0
  0
LINE
  5
1D3
330
9C
100
AcDbEntity
  8
1
  6
Continuous
 62
     2
100
AcDbLine
 10
19.02132460776517
 20
-53.70052913273889
 30
0.0
 11
15.02132460776517
 21
-54.20052913273889
 31
0.0
  0
LINE
  5
1D4
330
9C
100
AcDbEntity
  8
1
  6
Continuous
 62
     2
100
AcDbLine
 10
19.02132460776517
 20
-51.70052913273889
 30
0.0
 11
19.02132460776517
 21
-53.70052913273889
 31
0.0
  0
LINE
  5
1D5
330
9C
100
AcDbEntity
  8
1
  6
Continuous
 62
     2
100
AcDbLine
 10
15.02132460776517
 20
-51.20052913273889
 30
0.0
 11
19.02132460776517
 21
-51.70052913273889
 31
0.0
  0
LINE
  5
1D6
330
9C
100
AcDbEntity
  8
1
  6
Continuous
 62
     6
100
AcDbLine
 10
-115.7141399999983
 20
-54.82552913273889
 30
0.0
 11
-115.7141399999983
 21
-50.57552913273889
 31
0.0
  0
LINE
  5
1D7
330
9C
100
AcDbEntity
  8
1
  6
Continuous
 62
     7
100
AcDbLine
 10
6.74105547324987
 20
-42.07552913273889
 30
0.0
 11
16.14105547324988
 21
-42.07552913273889
 31
0.0
  0
LINE
  5
1D8
330
9C
100
AcDbEntity
  8
1
  6
Continuous
 62
     6
100
AcDbLine
 10
16.14105547324988
 20
-37.82552913273889
 30
0.0
 11
6.74105547324987
 21
-37.82552913273889
 31
0.0
  0
LINE
  5
1D9
330
9C
100
AcDbEntity
  8
1
  6
Continuous
 62
     7
100
AcDbLine
 10
16.14105547324988
 20
-50.57552913273878
 30
0.0
 11
6.74105547324987
 21
-50.57552913273889
 31
0.0
  0
LINE
  5
1DA
330
9C
100
AcDbEntity
  8
1
  6
Continuous
 62
     2
100
AcDbLine
 10
-33.75894452675013
 20
-54.82552913273889
 30
0.0
 11
-96.01414000000034
 21
-54.82552913273889
 31
0.0
  0
LINE
  5
1DB
330
9C
100
AcDbEntity
  8
1
  6
Continuous
 62
     2
100
AcDbLine
 10
-33.75894452675013
 20
-54.82552913273889
 30
0.0
 11
-33.75894452675013
 21
-59.07552913273889
 31
0.0
  0
LINE
  5
1DC
330
9C
100
AcDbEntity
  8
1
  6
Continuous
 62
     2
100
AcDbLine
 10
-33.75894452675013
 20
-42.07552913273889
 30
0.0
 11
-33.75894452675013
 21
-46.32552913273889
 31
0.0
  0
LINE
  5
1DD
330
9C
100
AcDbEntity
  8
1
  6
Continuous
 62
     2
100
AcDbLine
 10
-33.75894452675013
 20
-46.32552913273889
 30
0.0
 11
-33.75894452675013
 21
-50.57552913273889
 31
0.0
  0
LINE
  5
1DE
330
9C
100
AcDbEntity
  8
1
  6
Continuous
 62
     2
100
AcDbLine
 10
-33.75894452675013
 20
-50.57552913273889
 30
0.0
 11
-96.01414000000034
 21
-50.57552913273889
 31
0.0
  0
LINE
  5
1DF
330
9C
100
AcDbEntity
  8
1
  6
Continuous
 62
     2
100
AcDbLine
 10
-33.75894452675013
 20
-50.57552913273889
 30
0.0
 11
-33.75894452675013
 21
-54.82552913273889
 31
0.0
  0
LINE
  5
1E0
330
9C
100
AcDbEntity
  8
1
  6
Continuous
 62
     7
100
AcDbLine
 10
-33.75894452675013
 20
-63.32552913273878
 30
0.0
 11
-20.25894452675013
 21
-63.32552913273878
 31
0.0
  0
LINE
  5
1E1
330
9C
100
AcDbEntity
  8
1
  6
Continuous
 62
     2
100
AcDbLine
 10
-33.75894452675013
 20
-63.32552913273878
 30
0.0
 11
-33.75894452675013
 21
-67.5755291327389
 31
0.0
  0
LINE
  5
1E2
330
9C
100
AcDbEntity
  8
1
  6
Continuous
 62
     2
100
AcDbLine
 10
-33.75894452675013
 20
-59.07552913273889
 30
0.0
 11
-96.01414000000034
 21
-59.07552913273889
 31
0.0
  0
LINE
  5
1E3
330
9C
100
AcDbEntity
  8
1
  6
Continuous
 62
     2
100
AcDbLine
 10
-33.75894452675013
 20
-59.07552913273889
 30
0.0
 11
-33.75894452675013
 21
-63.32552913273878
 31
0.0
  0
LINE
  5
1E4
330
9C
100
AcDbEntity
  8
1
  6
Continuous
 62
     2
100
AcDbLine
 10
-20.25894452675013
 20
-54.82552913273889
 30
0.0
 11
-33.75894452675013
 21
-54.82552913273889
 31
0.0
  0
LINE
  5
1E5
330
9C
100
AcDbEntity
  8
1
  6
Continuous
 62
     2
100
AcDbLine
 10
-20.25894452675013
 20
-54.82552913273889
 30
0.0
 11
-20.25894452675013
 21
-59.07552913273889
 31
0.0
  0
LINE
  5
1E6
330
9C
100
AcDbEntity
  8
1
  6
Continuous
 62
     2
100
AcDbLine
 10
-20.25894452675013
 20
-42.07552913273889
 30
0.0
 11
-33.75894452675013
 21
-42.07552913273889
 31
0.0
  0
LINE
  5
1E7
330
9C
100
AcDbEntity
  8
1
  6
Continuous
 62
     2
100
AcDbLine
 10
-20.25894452675013
 20
-42.07552913273889
 30
0.0
 11
-20.25894452675013
 21
-46.32552913273889
 31
0.0
  0
LINE
  5
1E8
330
9C
100
AcDbEntity
  8
1
  6
Continuous
 62
     2
100
AcDbLine
 10
-20.25894452675013
 20
-46.32552913273889
 30
0.0
 11
-33.75894452675013
 21
-46.32552913273889
 31
0.0
  0
LINE
  5
1E9
330
9C
100
AcDbEntity
  8
1
  6
Continuous
 62
     2
100
AcDbLine
 10
-20.25894452675013
 20
-46.32552913273889
 30
0.0
 11
-20.25894452675013
 21
-50.57552913273889
 31
0.0
  0
LINE
  5
1EA
330
9C
100
AcDbEntity
  8
1
  6
Continuous
 62
     2
100
AcDbLine
 10
-20.25894452675013
 20
-50.57552913273889
 30
0.0
 11
-33.75894452675013
 21
-50.57552913273889
 31
0.0
  0
LINE
  5
1EB
330
9C
100
AcDbEntity
  8
1
  6
Continuous
 62
     2
100
AcDbLine
 10
-20.25894452675013
 20
-50.57552913273889
 30
0.0
 11
-20.25894452675013
 21
-54.82552913273889
 31
0.0
  0
LINE
  5
1EC
330
9C
100
AcDbEntity
  8
1
  6
Continuous
 62
     7
100
AcDbLine
 10
-20.25894452675013
 20
-63.32552913273878
 30
0.0
 11
-6.75894452675021
 21
-63.32552913273878
 31
0.0
  0
LINE
  5
1ED
330
9C
100
AcDbEntity
  8
1
  6
Continuous
 62
     2
100
AcDbLine
 10
-20.25894452675013
 20
-63.32552913273878
 30
0.0
 11
-20.25894452675013
 21
-67.5755291327389
 31
0.0
  0
LINE
  5
1EE
330
9C
100
AcDbEntity
  8
1
  6
Continuous
 62
     2
100
AcDbLine
 10
-20.25894452675013
 20
-59.07552913273889
 30
0.0
 11
-33.75894452675013
 21
-59.07552913273889
 31
0.0
  0
LINE
  5
1EF
330
9C
100
AcDbEntity
  8
1
  6
Continuous
 62
     2
100
AcDbLine
 10
-20.25894452675013
 20
-59.07552913273889
 30
0.0
 11
-20.25894452675013
 21
-63.32552913273878
 31
0.0
  0
LINE
  5
1F0
330
9C
100
AcDbEntity
  8
1
  6
Continuous
 62
     2
100
AcDbLine
 10
-6.75894452675021
 20
-54.82552913273889
 30
0.0
 11
-20.25894452675013
 21
-54.82552913273889
 31
0.0
  0
LINE
  5
1F1
330
9C
100
AcDbEntity
  8
1
  6
Continuous
 62
     2
100
AcDbLine
 10
-6.75894452675021
 20
-54.82552913273889
 30
0.0
 11
-6.75894452675021
 21
-59.07552913273889
 31
0.0
  0
LINE
  5
1F2
330
9C
100
AcDbEntity
  8
1
  6
Continuous
 62
     2
100
AcDbLine
 10
-6.75894452675021
 20
-42.07552913273889
 30
0.0
 11
-20.25894452675013
 21
-42.07552913273889
 31
0.0
  0
LINE
  5
1F3
330
9C
100
AcDbEntity
  8
1
  6
Continuous
 62
     2
100
AcDbLine
 10
-6.75894452675021
 20
-42.07552913273889
 30
0.0
 11
-6.75894452675021
 21
-46.32552913273889
 31
0.0
  0
LINE
  5
1F4
330
9C
100
AcDbEntity
  8
1
  6
Continuous
 62
     2
100
AcDbLine
 10
-6.75894452675021
 20
-46.32552913273889
 30
0.0
 11
-20.25894452675013
 21
-46.32552913273889
 31
0.0
  0
LINE
  5
1F5
330
9C
100
AcDbEntity
  8
1
  6
Continuous
 62
     2
100
AcDbLine
 10
-6.75894452675021
 20
-46.32552913273889
 30
0.0
 11
-6.75894452675021
 21
-50.57552913273889
 31
0.0
  0
LINE
  5
1F6
330
9C
100
AcDbEntity
  8
1
  6
Continuous
 62
     2
100
AcDbLine
 10
-6.75894452675021
 20
-50.57552913273889
 30
0.0
 11
-20.25894452675013
 21
-50.57552913273889
 31
0.0
  0
LINE
  5
1F7
330
9C
100
AcDbEntity
  8
1
  6
Continuous
 62
     2
100
AcDbLine
 10
-6.75894452675021
 20
-50.57552913273889
 30
0.0
 11
-6.75894452675021
 21
-54.82552913273889
 31
0.0
  0
LINE
  5
1F8
330
9C
100
AcDbEntity
  8
1
  6
Continuous
 62
     7
100
AcDbLine
 10
-6.75894452675021
 20
-63.32552913273878
 30
0.0
 11
6.74105547324987
 21
-63.32552913273878
 31
0.0
  0
LINE
  5
1F9
330
9C
100
AcDbEntity
  8
1
  6
Continuous
 62
     2
100
AcDbLine
 10
-6.75894452675021
 20
-63.32552913273878
 30
0.0
 11
-6.75894452675021
 21
-67.5755291327389
 31
0.0
  0
LINE
  5
1FA
330
9C
100
AcDbEntity
  8
1
  6
Continuous
 62
     2
100
AcDbLine
 10
-6.75894452675021
 20
-59.07552913273889
 30
0.0
 11
-20.25894452675013
 21
-59.07552913273889
 31
0.0
  0
LINE
  5
1FB
330
9C
100
AcDbEntity
  8
1
  6
Continuous
 62
     2
100
AcDbLine
 10
-6.75894452675021
 20
-59.07552913273889
 30
0.0
 11
-6.75894452675021
 21
-63.32552913273878
 31
0.0
  0
LINE
  5
1FC
330
9C
100
AcDbEntity
  8
1
  6
Continuous
 62
     7
100
AcDbLine
 10
66.04105547324977
 20
-46.32552913273889
 30
0.0
 11
43.14105547324976
 21
-46.32552913273889
 31
0.0
  0
LINE
  5
1FD
330
9C
100
AcDbEntity
  8
1
  6
Continuous
 62
     7
100
AcDbLine
 10
29.64105547324976
 20
-46.32552913273889
 30
0.0
 11
43.14105547324976
 21
-46.32552913273889
 31
0.0
  0
LINE
  5
1FE
330
9C
100
AcDbEntity
  8
1
  6
Continuous
 62
     2
100
AcDbLine
 10
-96.01414000000034
 20
-46.32552913273889
 30
0.0
 11
-33.75894452675013
 21
-46.32552913273889
 31
0.0
  0
LINE
  5
1FF
330
9C
100
AcDbEntity
  8
1
  6
Continuous
 62
     2
100
AcDbLine
 10
-96.01414000000034
 20
-42.07552913273889
 30
0.0
 11
-33.75894452675013
 21
-42.07552913273889
 31
0.0
  0
LINE
  5
200
330
9C
100
AcDbEntity
  8
1
  6
Continuous
 62
     6
100
AcDbLine
 10
-33.75894452675013
 20
-37.82552913273889
 30
0.0
 11
-96.01414000000034
 21
-37.82552913273889
 31
0.0
  0
LINE
  5
201
330
9C
100
AcDbEntity
  8
1
  6
Continuous
 62
     6
100
AcDbLine
 10
-115.7141399999983
 20
-59.07552913273889
 30
0.0
 11
-115.7141399999983
 21
-54.82552913273889
 31
0.0
  0
LINE
  5
202
330
9C
100
AcDbEntity
  8
1
  6
Continuous
 62
     6
100
AcDbLine
 10
-115.7141399999983
 20
-50.57552913273889
 30
0.0
 11
-115.7141399999983
 21
-46.32552913273889
 31
0.0
  0
LINE
  5
203
330
9C
100
AcDbEntity
  8
1
  6
Continuous
 62
     6
100
AcDbLine
 10
-115.7141399999983
 20
-46.32552913273889
 30
0.0
 11
-115.7141399999983
 21
-42.07552913273889
 31
0.0
  0
LINE
  5
204
330
9C
100
AcDbEntity
  8
1
  6
Continuous
 62
     6
100
AcDbLine
 10
-115.7141399999983
 20
-42.07552913273889
 30
0.0
 11
-115.7141399999983
 21
-37.82552913273889
 31
0.0
  0
LINE
  5
205
330
9C
100
AcDbEntity
  8
1
  6
Continuous
 62
     7
100
AcDbLine
 10
72.78586000000388
 20
-50.57552913273889
 30
0.0
 11
72.78586000000388
 21
-59.07552913273889
 31
0.0
  0
LINE
  5
206
330
9C
100
AcDbEntity
  8
1
  6
Continuous
 62
     7
100
AcDbLine
 10
72.78586000000388
 20
-50.57552913273889
 30
0.0
 11
91.28586000000348
 21
-50.57552913273889
 31
0.0
  0
LINE
  5
207
330
9C
100
AcDbEntity
  8
1
  6
Continuous
 62
     7
100
AcDbLine
 10
109.4858600000018
 20
-46.32552913273878
 30
0.0
 11
72.78586000000388
 21
-46.32552913273889
 31
0.0
  0
LINE
  5
208
330
9C
100
AcDbEntity
  8
1
  6
Continuous
 62
     7
100
AcDbLine
 10
109.4858600000018
 20
-46.32552913273878
 30
0.0
 11
118.4042682816807
 21
-46.32552913273889
 31
0.0
  0
LINE
  5
209
330
9C
100
AcDbEntity
  8
1
  6
Continuous
 62
     7
100
AcDbLine
 10
43.14105547324976
 20
-50.57552913273889
 30
0.0
 11
72.78586000000388
 21
-50.57552913273889
 31
0.0
  0
LINE
  5
20A
330
9C
100
AcDbEntity
  8
1
  6
Continuous
 62
     7
100
AcDbLine
 10
43.14105547324976
 20
-59.07552913273889
 30
0.0
 11
72.78586000000388
 21
-59.07552913273889
 31
0.0
  0
LINE
  5
20B
330
9C
100
AcDbEntity
  8
1
  6
Continuous
 62
     7
100
AcDbLine
 10
6.74105547324987
 20
-37.82552913273889
 30
0.0
 11
6.74105547324987
 21
-42.07552913273889
 31
0.0
  0
LINE
  5
20C
330
9C
100
AcDbEntity
  8
1
  6
Continuous
 62
     7
100
AcDbLine
 10
6.74105547324987
 20
-63.32552913273878
 30
0.0
 11
6.74105547324987
 21
-67.5755291327389
 31
0.0
  0
LINE
  5
20D
330
9C
100
AcDbEntity
  8
1
  6
Continuous
 62
     7
100
AcDbLine
 10
43.14105547324976
 20
-63.32552913273878
 30
0.0
 11
43.14105547324976
 21
-67.5755291327389
 31
0.0
  0
LINE
  5
20E
330
9C
100
AcDbEntity
  8
1
  6
Continuous
 62
     7
100
AcDbLine
 10
43.14105547324976
 20
-50.57552913273889
 30
0.0
 11
29.64105547324976
 21
-50.57552913273889
 31
0.0
  0
LINE
  5
20F
330
9C
100
AcDbEntity
  8
1
  6
Continuous
 62
     7
100
AcDbLine
 10
6.74105547324987
 20
-46.32552913273889
 30
0.0
 11
16.14105547324988
 21
-46.32552913273889
 31
0.0
  0
LINE
  5
210
330
9C
100
AcDbEntity
  8
1
  6
Continuous
 62
     7
100
AcDbLine
 10
16.14105547324988
 20
-42.07552913273889
 30
0.0
 11
16.14105547324988
 21
-46.32552913273889
 31
0.0
  0
LINE
  5
211
330
9C
100
AcDbEntity
  8
1
  6
Continuous
 62
     7
100
AcDbLine
 10
29.64105547324976
 20
-42.07552913273889
 30
0.0
 11
29.64105547324976
 21
-46.32552913273889
 31
0.0
  0
LINE
  5
212
330
9C
100
AcDbEntity
  8
1
  6
Continuous
 62
     7
100
AcDbLine
 10
6.74105547324987
 20
-59.07552913273889
 30
0.0
 11
6.74105547324987
 21
-63.32552913273878
 31
0.0
  0
LINE
  5
213
330
9C
100
AcDbEntity
  8
1
  6
Continuous
 62
     7
100
AcDbLine
 10
6.74105547324987
 20
-54.82552913273889
 30
0.0
 11
6.74105547324987
 21
-59.07552913273889
 31
0.0
  0
LINE
  5
214
330
9C
100
AcDbEntity
  8
1
  6
Continuous
 62
     7
100
AcDbLine
 10
43.14105547324976
 20
-59.07552913273889
 30
0.0
 11
43.14105547324976
 21
-63.32552913273878
 31
0.0
  0
LINE
  5
215
330
9C
100
AcDbEntity
  8
1
  6
Continuous
 62
     7
100
AcDbLine
 10
-115.7141399999983
 20
-63.32552913273878
 30
0.0
 11
-109.5141400000003
 21
-63.32552913273878
 31
0.0
  0
LINE
  5
216
330
9C
100
AcDbEntity
  8
1
  6
Continuous
 62
     2
100
AcDbLine
 10
-115.7141399999983
 20
-54.82552913273889
 30
0.0
 11
-109.5141400000003
 21
-54.82552913273889
 31
0.0
  0
LINE
  5
217
330
9C
100
AcDbEntity
  8
1
  6
Continuous
 62
     2
100
AcDbLine
 10
-115.7141399999983
 20
-59.07552913273889
 30
0.0
 11
-109.5141400000003
 21
-59.07552913273889
 31
0.0
  0
LINE
  5
218
330
9C
100
AcDbEntity
  8
1
  6
Continuous
 62
     2
100
AcDbLine
 10
-109.5141400000003
 20
-67.5755291327389
 30
0.0
 11
-109.5141400000003
 21
-63.32552913273878
 31
0.0
  0
LINE
  5
219
330
9C
100
AcDbEntity
  8
1
  6
Continuous
 62
     7
100
AcDbLine
 10
16.14105547324988
 20
-37.82552913273889
 30
0.0
 11
16.14105547324988
 21
-42.07552913273889
 31
0.0
  0
LINE
  5
21A
330
9C
100
AcDbEntity
  8
1
  6
Continuous
 62
     7
100
AcDbLine
 10
29.64105547324976
 20
-37.82552913273889
 30
0.0
 11
29.64105547324976
 21
-42.07552913273889
 31
0.0
  0
LINE
  5
21B
330
9C
100
AcDbEntity
  8
1
  6
Continuous
 62
     7
100
AcDbLine
 10
43.14105547324976
 20
-46.32552913273889
 30
0.0
 11
43.14105547324976
 21
-50.57552913273889
 31
0.0
  0
LINE
  5
21C
330
9C
100
AcDbEntity
  8
1
  6
Continuous
 62
     7
100
AcDbLine
 10
6.74105547324987
 20
-42.07552913273889
 30
0.0
 11
6.74105547324987
 21
-46.32552913273889
 31
0.0
  0
LINE
  5
21D
330
9C
100
AcDbEntity
  8
1
  6
Continuous
 62
     2
100
AcDbLine
 10
-115.7141399999983
 20
-46.32552913273889
 30
0.0
 11
-109.5141400000003
 21
-46.32552913273889
 31
0.0
  0
LINE
  5
21E
330
9C
100
AcDbEntity
  8
1
  6
Continuous
 62
     7
100
AcDbLine
 10
6.74105547324987
 20
-46.32552913273889
 30
0.0
 11
6.74105547324987
 21
-50.57552913273889
 31
0.0
  0
LINE
  5
21F
330
9C
100
AcDbEntity
  8
1
  6
Continuous
 62
     7
100
AcDbLine
 10
6.74105547324987
 20
-50.57552913273889
 30
0.0
 11
6.74105547324987
 21
-54.82552913273889
 31
0.0
  0
LINE
  5
220
330
9C
100
AcDbEntity
  8
1
  6
Continuous
 62
     6
100
AcDbLine
 10
16.14105547324988
 20
-37.82552913273889
 30
0.0
 11
29.64105547324976
 21
-37.82552913273889
 31
0.0
  0
LINE
  5
221
330
9C
100
AcDbEntity
  8
1
  6
Continuous
 62
     7
100
AcDbLine
 10
43.14105547324976
 20
-37.82552913273889
 30
0.0
 11
43.14105547324976
 21
-42.07552913273889
 31
0.0
  0
LINE
  5
222
330
9C
100
AcDbEntity
  8
1
  6
Continuous
 62
     6
100
AcDbLine
 10
29.64105547324976
 20
-37.82552913273889
 30
0.0
 11
43.14105547324976
 21
-37.82552913273889
 31
0.0
  0
LINE
  5
223
330
9C
100
AcDbEntity
  8
1
  6
Continuous
 62
     7
100
AcDbLine
 10
43.14105547324976
 20
-59.07552913273889
 30
0.0
 11
43.14105547324976
 21
-54.82552913273889
 31
0.0
  0
LINE
  5
224
330
9C
100
AcDbEntity
  8
1
  6
Continuous
 62
     2
100
AcDbLine
 10
-109.5141400000003
 20
-63.32552913273878
 30
0.0
 11
-109.5141400000003
 21
-59.07552913273889
 31
0.0
  0
LINE
  5
225
330
9C
100
AcDbEntity
  8
1
  6
Continuous
 62
     7
100
AcDbLine
 10
-109.5141400000003
 20
-63.32552913273878
 30
0.0
 11
-96.01414000000034
 21
-63.32552913273878
 31
0.0
  0
LINE
  5
226
330
9C
100
AcDbEntity
  8
1
  6
Continuous
 62
     2
100
AcDbLine
 10
-109.5141400000003
 20
-54.82552913273889
 30
0.0
 11
-109.5141400000003
 21
-50.57552913273889
 31
0.0
  0
LINE
  5
227
330
9C
100
AcDbEntity
  8
1
  6
Continuous
 62
     2
100
AcDbLine
 10
-109.5141400000003
 20
-59.07552913273889
 30
0.0
 11
-109.5141400000003
 21
-54.82552913273889
 31
0.0
  0
LINE
  5
228
330
9C
100
AcDbEntity
  8
1
  6
Continuous
 62
     2
100
AcDbLine
 10
6.74105547324987
 20
-54.82552913273889
 30
0.0
 11
-6.75894452675021
 21
-54.82552913273889
 31
0.0
  0
LINE
  5
229
330
9C
100
AcDbEntity
  8
1
  6
Continuous
 62
     2
100
AcDbLine
 10
6.74105547324987
 20
-59.07552913273889
 30
0.0
 11
-6.75894452675021
 21
-59.07552913273889
 31
0.0
  0
LINE
  5
22A
330
9C
100
AcDbEntity
  8
1
  6
Continuous
 62
     6
100
AcDbLine
 10
6.74105547324987
 20
-37.82552913273889
 30
0.0
 11
-6.75894452675021
 21
-37.82552913273889
 31
0.0
  0
LINE
  5
22B
330
9C
100
AcDbEntity
  8
1
  6
Continuous
 62
     2
100
AcDbLine
 10
-109.5141400000003
 20
-42.07552913273889
 30
0.0
 11
-115.7141399999983
 21
-42.07552913273889
 31
0.0
  0
LINE
  5
22C
330
9C
100
AcDbEntity
  8
1
  6
Continuous
 62
     2
100
AcDbLine
 10
-109.5141400000003
 20
-42.07552913273889
 30
0.0
 11
-109.5141400000003
 21
-37.82552913273889
 31
0.0
  0
LINE
  5
22D
330
9C
100
AcDbEntity
  8
1
  6
Continuous
 62
     2
100
AcDbLine
 10
6.74105547324987
 20
-42.07552913273889
 30
0.0
 11
-6.75894452675021
 21
-42.07552913273889
 31
0.0
  0
LINE
  5
22E
330
9C
100
AcDbEntity
  8
1
  6
Continuous
 62
     2
100
AcDbLine
 10
-109.5141400000003
 20
-46.32552913273889
 30
0.0
 11
-109.5141400000003
 21
-42.07552913273889
 31
0.0
  0
LINE
  5
22F
330
9C
100
AcDbEntity
  8
1
  6
Continuous
 62
     2
100
AcDbLine
 10
6.74105547324987
 20
-46.32552913273889
 30
0.0
 11
-6.75894452675021
 21
-46.32552913273889
 31
0.0
  0
LINE
  5
230
330
9C
100
AcDbEntity
  8
1
  6
Continuous
 62
     2
100
AcDbLine
 10
-109.5141400000003
 20
-50.57552913273889
 30
0.0
 11
-115.7141399999983
 21
-50.57552913273889
 31
0.0
  0
LINE
  5
231
330
9C
100
AcDbEntity
  8
1
  6
Continuous
 62
     2
100
AcDbLine
 10
-109.5141400000003
 20
-50.57552913273889
 30
0.0
 11
-109.5141400000003
 21
-46.32552913273889
 31
0.0
  0
LINE
  5
232
330
9C
100
AcDbEntity
  8
1
  6
Continuous
 62
     2
100
AcDbLine
 10
6.74105547324987
 20
-50.57552913273889
 30
0.0
 11
-6.75894452675021
 21
-50.57552913273889
 31
0.0
  0
LINE
  5
233
330
9C
100
AcDbEntity
  8
1
  6
Continuous
 62
     7
100
AcDbLine
 10
29.64105547324976
 20
-46.32552913273889
 30
0.0
 11
16.14105547324988
 21
-46.32552913273889
 31
0.0
  0
LINE
  5
234
330
9C
100
AcDbEntity
  8
1
  6
Continuous
 62
     7
100
AcDbLine
 10
16.14105547324988
 20
-46.32552913273889
 30
0.0
 11
16.14105547324988
 21
-50.57552913273878
 31
0.0
  0
LINE
  5
235
330
9C
100
AcDbEntity
  8
1
  6
Continuous
 62
     7
100
AcDbLine
 10
29.64105547324976
 20
-46.32552913273889
 30
0.0
 11
29.64105547324976
 21
-50.57552913273889
 31
0.0
  0
LINE
  5
236
330
9C
100
AcDbEntity
  8
1
  6
Continuous
 62
     6
100
AcDbLine
 10
-115.7141399999983
 20
-63.32552913273878
 30
0.0
 11
-115.7141399999983
 21
-59.07552913273889
 31
0.0
  0
LINE
  5
237
330
9C
100
AcDbEntity
  8
1
  6
Continuous
 62
     6
100
AcDbLine
 10
-115.7141399999983
 20
-67.57552913273878
 30
0.0
 11
-115.7141399999983
 21
-63.32552913273878
 31
0.0
  0
LINE
  5
238
330
9C
100
AcDbEntity
  8
1
  6
Continuous
 62
     6
100
AcDbLine
 10
-109.5141400000003
 20
-37.82552913273889
 30
0.0
 11
-115.7141399999983
 21
-37.82552913273889
 31
0.0
  0
LINE
  5
239
330
9C
100
AcDbEntity
  8
1
  6
Continuous
 62
     7
100
AcDbLine
 10
66.04105547324977
 20
-37.82552913273889
 30
0.0
 11
66.04105547324977
 21
-46.32552913273889
 31
0.0
  0
LINE
  5
23A
330
9C
100
AcDbEntity
  8
1
  6
Continuous
 62
     6
100
AcDbLine
 10
109.4858600000015
 20
-37.82552913273889
 30
0.0
 11
66.04105547324977
 21
-37.82552913273889
 31
0.0
  0
LINE
  5
23B
330
9C
100
AcDbEntity
  8
1
  6
Continuous
 62
     6
100
AcDbLine
 10
43.14105547324976
 20
-37.82552913273889
 30
0.0
 11
66.04105547324977
 21
-37.82552913273889
 31
0.0
  0
LINE
  5
23C
330
9C
100
AcDbEntity
  8
1
  6
Continuous
 62
     7
100
AcDbLine
 10
43.14105547324976
 20
-63.32552913273878
 30
0.0
 11
24.94105547324978
 21
-63.32552913273878
 31
0.0
  0
LINE
  5
23D
330
9C
100
AcDbEntity
  8
1
  6
Continuous
 62
     7
100
AcDbLine
 10
29.64105547324976
 20
-50.57552913273889
 30
0.0
 11
16.14105547324988
 21
-50.57552913273878
 31
0.0
  0
LINE
  5
23E
330
9C
100
AcDbEntity
  8
1
  6
Continuous
 62
     7
100
AcDbLine
 10
24.94105547324978
 20
-63.32552913273878
 30
0.0
 11
6.74105547324987
 21
-63.32552913273878
 31
0.0
  0
LINE
  5
23F
330
9C
100
AcDbEntity
  8
1
  6
Continuous
 62
     7
100
AcDbLine
 10
24.94105547324978
 20
-63.32552913273878
 30
0.0
 11
24.94105547324978
 21
-67.57552913273878
 31
0.0
  0
LINE
  5
240
330
9C
100
AcDbEntity
  8
1
  6
Continuous
 62
     2
100
AcDbLine
 10
-33.75894452675013
 20
-37.82552913273889
 30
0.0
 11
-33.75894452675013
 21
-42.07552913273889
 31
0.0
  0
LINE
  5
241
330
9C
100
AcDbEntity
  8
1
  6
Continuous
 62
     6
100
AcDbLine
 10
-20.25894452675013
 20
-37.82552913273889
 30
0.0
 11
-33.75894452675013
 21
-37.82552913273889
 31
0.0
  0
LINE
  5
242
330
9C
100
AcDbEntity
  8
1
  6
Continuous
 62
     6
100
AcDbLine
 10
-6.75894452675021
 20
-37.82552913273889
 30
0.0
 11
-20.25894452675013
 21
-37.82552913273889
 31
0.0
  0
LINE
  5
243
330
9C
100
AcDbEntity
  8
1
  6
Continuous
 62
     2
100
AcDbLine
 10
-20.25894452675013
 20
-37.82552913273889
 30
0.0
 11
-20.25894452675013
 21
-42.07552913273889
 31
0.0
  0
LINE
  5
244
330
9C
100
AcDbEntity
  8
1
  6
Continuous
 62
     2
100
AcDbLine
 10
-6.75894452675021
 20
-37.82552913273889
 30
0.0
 11
-6.75894452675021
 21
-42.07552913273889
 31
0.0
  0
LINE
  5
245
330
9C
100
AcDbEntity
  8
1
  6
Continuous
 62
     7
100
AcDbLine
 10
91.28586000000348
 20
-50.57552913273889
 30
0.0
 11
91.28586000000348
 21
-59.07552913273889
 31
0.0
  0
LINE
  5
246
330
9C
100
AcDbEntity
  8
1
  6
Continuous
 62
     7
100
AcDbLine
 10
91.28586000000348
 20
-59.07552913273889
 30
0.0
 11
72.78586000000388
 21
-59.07552913273889
 31
0.0
  0
LINE
  5
247
330
9C
100
AcDbEntity
  8
1
  6
Continuous
 62
     7
100
AcDbLine
 10
109.4858600000015
 20
-37.82552913273889
 30
0.0
 11
109.4858600000018
 21
-46.32552913273878
 31
0.0
  0
LINE
  5
248
330
9C
100
AcDbEntity
  8
1
  6
Continuous
 62
     6
100
AcDbLine
 10
109.4858600000015
 20
-37.82552913273889
 30
0.0
 11
118.4042682816807
 21
-37.82552913273889
 31
0.0
  0
LINE
  5
249
330
9C
100
AcDbEntity
  8
1
  6
Continuous
 62
     7
100
AcDbLine
 10
118.4042682816807
 20
-46.32552913273889
 30
0.0
 11
118.4042682816807
 21
-37.82552913273889
 31
0.0
  0
LINE
  5
24A
330
9C
100
AcDbEntity
  8
1
  6
Continuous
 62
     7
100
AcDbLine
 10
29.64105547324976
 20
-42.07552913273889
 30
0.0
 11
16.14105547324988
 21
-42.07552913273889
 31
0.0
  0
LINE
  5
24B
330
9C
100
AcDbEntity
  8
1
  6
Continuous
 62
     7
100
AcDbLine
 10
29.64105547324976
 20
-42.07552913273889
 30
0.0
 11
43.14105547324976
 21
-42.07552913273889
 31
0.0
  0
LINE
  5
24C
330
9C
100
AcDbEntity
  8
1
  6
Continuous
 62
     7
100
AcDbLine
 10
43.14105547324976
 20
-42.07552913273889
 30
0.0
 11
43.14105547324976
 21
-46.32552913273889
 31
0.0
  0
LINE
  5
24D
330
9C
100
AcDbEntity
  8
1
  6
Continuous
 62
     7
100
AcDbLine
 10
91.28586000000348
 20
-50.57552913273889
 30
0.0
 11
136.2858600000016
 21
-50.57552913273889
 31
0.0
  0
LINE
  5
24E
330
9C
100
AcDbEntity
  8
1
  6
Continuous
 62
     7
100
AcDbLine
 10
136.2858600000006
 20
-46.32552913273889
 30
0.0
 11
118.4042682816807
 21
-46.32552913273889
 31
0.0
  0
LINE
  5
24F
330
9C
100
AcDbEntity
  8
1
  6
Continuous
 62
     7
100
AcDbLine
 10
136.2858600000011
 20
-59.07552913273889
 30
0.0
 11
91.28586000000348
 21
-59.07552913273889
 31
0.0
  0
LINE
  5
250
330
9C
100
AcDbEntity
  8
1
  6
Continuous
 62
     6
100
AcDbLine
 10
136.2858600000015
 20
-37.82552913273889
 30
0.0
 11
118.4042682816807
 21
-37.82552913273889
 31
0.0
  0
LINE
  5
251
330
9C
100
AcDbEntity
  8
1
  6
Continuous
 62
     2
100
AcDbLine
 10
-96.01414000000034
 20
-37.82552913273889
 30
0.0
 11
-96.01414000000034
 21
-42.07552913273889
 31
0.0
  0
LINE
  5
252
330
9C
100
AcDbEntity
  8
1
  6
Continuous
 62
     6
100
AcDbLine
 10
-96.01414000000034
 20
-37.82552913273889
 30
0.0
 11
-109.5141400000003
 21
-37.82552913273889
 31
0.0
  0
LINE
  5
253
330
9C
100
AcDbEntity
  8
1
  6
Continuous
 62
     2
100
AcDbLine
 10
-96.01414000000034
 20
-42.07552913273889
 30
0.0
 11
-96.01414000000034
 21
-46.32552913273889
 31
0.0
  0
LINE
  5
254
330
9C
100
AcDbEntity
  8
1
  6
Continuous
 62
     2
100
AcDbLine
 10
-96.01414000000034
 20
-46.32552913273889
 30
0.0
 11
-96.01414000000034
 21
-50.57552913273889
 31
0.0
  0
LINE
  5
255
330
9C
100
AcDbEntity
  8
1
  6
Continuous
 62
     2
100
AcDbLine
 10
-96.01414000000034
 20
-46.32552913273889
 30
0.0
 11
-109.5141400000003
 21
-46.32552913273889
 31
0.0
  0
LINE
  5
256
330
9C
100
AcDbEntity
  8
1
  6
Continuous
 62
     2
100
AcDbLine
 10
-96.01414000000034
 20
-42.07552913273889
 30
0.0
 11
-109.5141400000003
 21
-42.07552913273889
 31
0.0
  0
LINE
  5
257
330
9C
100
AcDbEntity
  8
1
  6
Continuous
 62
     2
100
AcDbLine
 10
-96.01414000000034
 20
-54.82552913273889
 30
0.0
 11
-96.01414000000034
 21
-59.07552913273889
 31
0.0
  0
LINE
  5
258
330
9C
100
AcDbEntity
  8
1
  6
Continuous
 62
     2
100
AcDbLine
 10
-96.01414000000034
 20
-54.82552913273889
 30
0.0
 11
-109.5141400000003
 21
-54.82552913273889
 31
0.0
  0
LINE
  5
259
330
9C
100
AcDbEntity
  8
1
  6
Continuous
 62
     2
100
AcDbLine
 10
-96.01414000000034
 20
-50.57552913273889
 30
0.0
 11
-96.01414000000034
 21
-54.82552913273889
 31
0.0
  0
LINE
  5
25A
330
9C
100
AcDbEntity
  8
1
  6
Continuous
 62
     2
100
AcDbLine
 10
-96.01414000000034
 20
-50.57552913273889
 30
0.0
 11
-109.5141400000003
 21
-50.57552913273889
 31
0.0
  0
LINE
  5
25B
330
9C
100
AcDbEntity
  8
1
  6
Continuous
 62
     2
100
AcDbLine
 10
-96.01414000000034
 20
-59.07552913273889
 30
0.0
 11
-96.01414000000034
 21
-63.32552913273878
 31
0.0
  0
LINE
  5
25C
330
9C
100
AcDbEntity
  8
1
  6
Continuous
 62
     2
100
AcDbLine
 10
-96.01414000000034
 20
-59.07552913273889
 30
0.0
 11
-109.5141400000003
 21
-59.07552913273889
 31
0.0
  0
LINE
  5
25D
330
9C
100
AcDbEntity
  8
1
  6
Continuous
 62
     2
100
AcDbLine
 10
-96.01414000000034
 20
-63.32552913273878
 30
0.0
 11
-96.01414000000034
 21
-67.57552913273878
 31
0.0
  0
LINE
  5
25E
330
9C
100
AcDbEntity
  8
1
  6
Continuous
 62
     7
100
AcDbLine
 10
-96.01414000000034
 20
-63.32552913273878
 30
0.0
 11
-33.75894452675013
 21
-63.32552913273878
 31
0.0
  0
LINE
  5
25F
330
9C
100
AcDbEntity
  8
1
  6
Continuous
 62
     7
100
AcDbLine
 10
6.74105547324987
 20
-54.82552913273889
 30
0.0
 11
43.14105547324976
 21
-54.82552913273889
 31
0.0
  0
LINE
  5
260
330
9C
100
AcDbEntity
  8
1
  6
Continuous
 62
     7
100
AcDbLine
 10
43.14105547324976
 20
-54.82552913273889
 30
0.0
 11
43.14105547324976
 21
-50.57552913273889
 31
0.0
  0
LINE
  5
261
330
9C
100
AcDbEntity
  8
1
  6
PHANTOM
 62
     2
100
AcDbLine
 10
13.48331529835318
 20
-52.70052913273889
 30
0.0
 11
10.18331529835317
 21
-52.70052913273889
 31
0.0
  0
LINE
  5
262
330
9C
100
AcDbEntity
  8
1
  6
PHANTOM
 62
     2
100
AcDbLine
 10
11.83331529835317
 20
-51.0505291327388
 30
0.0
 11
11.83331529835317
 21
-54.35052913273887
 31
0.0
  0
LINE
  5
263
330
9C
100
AcDbEntity
  8
1
  6
PHANTOM
 62
     2
100
AcDbLine
 10
14.86031868805017
 20
-52.70052913273889
 30
0.0
 11
19.17591365723916
 21
-52.70052913273889
 31
0.0
  0
LINE
  5
264
330
9C
100
AcDbEntity
  8
1
  6
Continuous
 62
     6
100
AcDbLine
 10
136.2858600000015
 20
-37.82552913273889
 30
0.0
 11
136.2858600000015
 21
-10.17552913273823
 31
0.0
  0
LINE
  5
265
330
9C
100
AcDbEntity
  8
1
  6
Continuous
 62
     6
100
AcDbLine
 10
136.2858600000006
 20
-46.32552913273889
 30
0.0
 11
136.2858600000015
 21
-37.82552913273889
 31
0.0
  0
LINE
  5
266
330
9C
100
AcDbEntity
  8
1
  6
Continuous
 62
     6
100
AcDbLine
 10
136.2858600000016
 20
-50.57552913273889
 30
0.0
 11
136.2858600000006
 21
-46.32552913273889
 31
0.0
  0
LINE
  5
267
330
9C
100
AcDbEntity
  8
1
  6
Continuous
 62
     6
100
AcDbLine
 10
136.2858600000011
 20
-59.07552913273889
 30
0.0
 11
136.2858600000016
 21
-50.57552913273889
 31
0.0
  0
LINE
  5
268
330
9C
100
AcDbEntity
  8
1
  6
Continuous
 62
     6
100
AcDbLine
 10
67.95252666666818
 20
-67.57552913273832
 30
0.0
 11
136.2858600000015
 21
-67.57552913273878
 31
0.0
  0
LINE
  5
269
330
9C
100
AcDbEntity
  8
1
  6
Continuous
 62
     6
100
AcDbLine
 10
43.14105547324976
 20
-67.5755291327389
 30
0.0
 11
67.95252666666818
 21
-67.57552913273832
 31
0.0
  0
LINE
  5
26A
330
9C
100
AcDbEntity
  8
1
  6
Continuous
 62
     6
100
AcDbLine
 10
24.94105547324978
 20
-67.57552913273878
 30
0.0
 11
43.14105547324976
 21
-67.5755291327389
 31
0.0
  0
LINE
  5
26B
330
9C
100
AcDbEntity
  8
1
  6
Continuous
 62
     6
100
AcDbLine
 10
6.74105547324987
 20
-67.5755291327389
 30
0.0
 11
24.94105547324978
 21
-67.57552913273878
 31
0.0
  0
LINE
  5
26C
330
9C
100
AcDbEntity
  8
1
  6
Continuous
 62
     6
100
AcDbLine
 10
-0.38080666666502
 20
-67.57552913273832
 30
0.0
 11
6.74105547324987
 21
-67.5755291327389
 31
0.0
  0
LINE
  5
26D
330
9C
100
AcDbEntity
  8
1
  6
Continuous
 62
     6
100
AcDbLine
 10
-33.75894452675013
 20
-67.5755291327389
 30
0.0
 11
-20.25894452675013
 21
-67.5755291327389
 31
0.0
  0
LINE
  5
26E
330
9C
100
AcDbEntity
  8
1
  6
Continuous
 62
     6
100
AcDbLine
 10
-20.25894452675013
 20
-67.5755291327389
 30
0.0
 11
-6.75894452675021
 21
-67.5755291327389
 31
0.0
  0
LINE
  5
26F
330
9C
100
AcDbEntity
  8
1
  6
Continuous
 62
     6
100
AcDbLine
 10
-6.75894452675021
 20
-67.5755291327389
 30
0.0
 11
-0.38080666666502
 21
-67.57552913273832
 31
0.0
  0
LINE
  5
270
330
9C
100
AcDbEntity
  8
1
  6
Continuous
 62
     6
100
AcDbLine
 10
-68.71413999999842
 20
-67.57552913273832
 30
0.0
 11
-33.75894452675013
 21
-67.5755291327389
 31
0.0
  0
LINE
  5
271
330
9C
100
AcDbEntity
  8
1
  6
Continuous
 62
     6
100
AcDbLine
 10
-96.01414000000034
 20
-67.57552913273878
 30
0.0
 11
-68.71413999999842
 21
-67.57552913273832
 31
0.0
  0
LINE
  5
272
330
9C
100
AcDbEntity
  8
1
  6
Continuous
 62
     6
100
AcDbLine
 10
-109.5141400000003
 20
-67.5755291327389
 30
0.0
 11
-96.01414000000034
 21
-67.57552913273878
 31
0.0
  0
LINE
  5
273
330
9C
100
AcDbEntity
  8
1
  6
Continuous
 62
     6
100
AcDbLine
 10
-115.7141399999983
 20
-67.57552913273878
 30
0.0
 11
-109.5141400000003
 21
-67.5755291327389
 31
0.0
  0
LINE
  5
274
102
{ACAD_REACTORS
330
397
330
398
102
}
330
9C
100
AcDbEntity
  8
0
  6
Continuous
 62
     2
100
AcDbLine
 10
16.11016782213159
 20
-57.77593016067033
 30
0.0
 11
16.11016782213159
 21
-57.27548777347465
 31
0.0
  0
LINE
  5
275
102
{ACAD_REACTORS
330
397
330
398
102
}
330
9C
100
AcDbEntity
  8
0
  6
Continuous
 62
     2
100
AcDbLine
 10
16.11016782213159
 20
-60.09009099259697
 30
0.0
 11
16.11016782213159
 21
-59.60922206144403
 31
0.0
  0
LINE
  5
276
102
{ACAD_REACTORS
330
399
330
39A
102
}
330
9C
100
AcDbEntity
  8
0
  6
Continuous
 62
     2
100
AcDbLine
 10
34.81222272748627
 20
-59.85069920075978
 30
0.0
 11
34.81222272748627
 21
-61.72552913273296
 31
0.0
  0
LINE
  5
277
102
{ACAD_REACTORS
330
399
330
39A
102
}
330
9C
100
AcDbEntity
  8
0
  6
Continuous
 62
     2
100
AcDbLine
 10
33.67085596799237
 20
-59.20171960892253
 30
0.0
 11
36.46833160322268
 21
-59.20171960892208
 31
0.0
  0
LINE
  5
278
102
{ACAD_REACTORS
330
399
330
39A
102
}
330
9C
100
AcDbEntity
  8
0
  6
Continuous
 62
     2
100
AcDbLine
 10
36.46833160322268
 20
-59.85069920075978
 30
0.0
 11
36.46833160322268
 21
-59.20171960892208
 31
0.0
  0
LINE
  5
279
102
{ACAD_REACTORS
330
399
330
39A
102
}
330
9C
100
AcDbEntity
  8
0
  6
Continuous
 62
     2
100
AcDbLine
 10
35.79800182018678
 20
-59.85069920075978
 30
0.0
 11
36.46833160322268
 21
-59.85069920075978
 31
0.0
  0
LINE
  5
27A
102
{ACAD_REACTORS
330
399
330
39A
102
}
330
9C
100
AcDbEntity
  8
0
  6
Continuous
 62
     2
100
AcDbLine
 10
35.79800182018678
 20
-61.72552913273296
 30
0.0
 11
35.79800182018678
 21
-59.85069920075978
 31
0.0
  0
LINE
  5
27B
102
{ACAD_REACTORS
330
399
330
39A
102
}
330
9C
100
AcDbEntity
  8
0
  6
Continuous
 62
     2
100
AcDbLine
 10
34.81222272748627
 20
-61.72552913273296
 30
0.0
 11
35.79800182018678
 21
-61.72552913273296
 31
0.0
  0
LINE
  5
27C
102
{ACAD_REACTORS
330
38F
330
390
102
}
330
9C
100
AcDbEntity
  8
0
  6
Continuous
 62
     2
100
AcDbLine
 10
34.23652773735029
 20
-56.42552913274494
 30
0.0
 11
33.07725152433437
 21
-56.42552913274494
 31
0.0
  0
LINE
  5
27D
102
{ACAD_REACTORS
330
38F
330
390
102
}
330
9C
100
AcDbEntity
  8
0
  6
Continuous
 62
     2
100
AcDbLine
 10
34.23652773735029
 20
-56.42552913274494
 30
0.0
 11
34.73336040007078
 21
-56.98736658857592
 31
0.0
  0
LINE
  5
27E
102
{ACAD_REACTORS
330
38F
330
390
102
}
330
9C
100
AcDbEntity
  8
0
  6
Continuous
 62
     2
100
AcDbLine
 10
34.73336040007078
 20
-56.98736658857592
 30
0.0
 11
35.23019306279218
 21
-56.42552913274494
 31
0.0
  0
LINE
  5
27F
102
{ACAD_REACTORS
330
38F
330
390
102
}
330
9C
100
AcDbEntity
  8
0
  6
Continuous
 62
     2
100
AcDbLine
 10
35.31299850657777
 20
-57.64284362037813
 30
0.0
 11
36.38946927580636
 21
-56.42552913274494
 31
0.0
  0
LINE
  5
280
102
{ACAD_REACTORS
330
38F
330
390
102
}
330
9C
100
AcDbEntity
  8
0
  6
Continuous
 62
     2
100
AcDbLine
 10
35.31299850657777
 20
-57.64284362037813
 30
0.0
 11
36.46833160322268
 21
-58.94933865655582
 31
0.0
  0
LINE
  5
281
102
{ACAD_REACTORS
330
38F
330
390
102
}
330
9C
100
AcDbEntity
  8
0
  6
Continuous
 62
     2
100
AcDbLine
 10
35.30905539020756
 20
-58.94933865655582
 30
0.0
 11
36.46833160322268
 21
-58.94933865655582
 31
0.0
  0
LINE
  5
282
102
{ACAD_REACTORS
330
38F
330
390
102
}
330
9C
100
AcDbEntity
  8
0
  6
Continuous
 62
     2
100
AcDbLine
 10
34.73336040007078
 20
-58.29832065218079
 30
0.0
 11
35.30905539020756
 21
-58.94933865655582
 31
0.0
  0
LINE
  5
283
102
{ACAD_REACTORS
330
38D
330
38E
102
}
330
9C
100
AcDbEntity
  8
0
  6
Continuous
 62
     2
100
AcDbLine
 10
31.87460103124127
 20
-56.42552913274494
 30
0.0
 11
32.89981128764867
 21
-56.42552913274494
 31
0.0
  0
LINE
  5
284
102
{ACAD_REACTORS
330
38D
330
38E
102
}
330
9C
100
AcDbEntity
  8
0
  6
Continuous
 62
     2
100
AcDbLine
 10
32.89981128764867
 20
-56.42552913274494
 30
0.0
 11
32.89981128764867
 21
-58.94933865655582
 31
0.0
  0
LINE
  5
285
102
{ACAD_REACTORS
330
38D
330
38E
102
}
330
9C
100
AcDbEntity
  8
0
  6
Continuous
 62
     2
100
AcDbLine
 10
31.87460103124127
 20
-58.94933865655582
 30
0.0
 11
31.87460103124127
 21
-56.42552913274494
 31
0.0
  0
LINE
  5
286
102
{ACAD_REACTORS
330
38B
330
38C
102
}
330
9C
100
AcDbEntity
  8
0
  6
Continuous
 62
     2
100
AcDbLine
 10
30.66112162418548
 20
-60.71600532320861
 30
0.0
 11
30.90919206814607
 21
-60.08144750007909
 31
0.0
  0
LINE
  5
287
102
{ACAD_REACTORS
330
38B
330
38C
102
}
330
9C
100
AcDbEntity
  8
0
  6
Continuous
 62
     2
100
AcDbLine
 10
30.26646409970539
 20
-61.72552913273296
 30
0.0
 11
30.44124100340437
 21
-61.27845430280081
 31
0.0
  0
LINE
  5
288
102
{ACAD_REACTORS
330
38B
330
38C
102
}
330
9C
100
AcDbEntity
  8
0
  6
Continuous
 62
     2
100
AcDbLine
 10
30.39658693994198
 20
-59.20171960892208
 30
0.0
 11
29.24125384329798
 21
-61.72552913273296
 31
0.0
  0
LINE
  5
289
102
{ACAD_REACTORS
330
38B
330
38C
102
}
330
9C
100
AcDbEntity
  8
0
  6
Continuous
 62
     2
100
AcDbLine
 10
32.57713029299418
 20
-61.72552913273296
 30
0.0
 11
31.55192003658598
 21
-61.72552913273296
 31
0.0
  0
LINE
  5
28A
102
{ACAD_REACTORS
330
38B
330
38C
102
}
330
9C
100
AcDbEntity
  8
0
  6
Continuous
 62
     2
100
AcDbLine
 10
30.44124100340437
 20
-61.27845430280081
 30
0.0
 11
31.37714313288697
 21
-61.27845430280081
 31
0.0
  0
LINE
  5
28B
102
{ACAD_REACTORS
330
389
330
38A
102
}
330
9C
100
AcDbEntity
  8
0
  6
Continuous
 62
     2
100
AcDbLine
 10
27.45818595967629
 20
-59.85069920075978
 30
0.0
 11
28.12851574271318
 21
-59.85069920075978
 31
0.0
  0
LINE
  5
28C
102
{ACAD_REACTORS
330
389
330
38A
102
}
330
9C
100
AcDbEntity
  8
0
  6
Continuous
 62
     2
100
AcDbLine
 10
29.78462461844796
 20
-59.20171960892208
 30
0.0
 11
27.45818595967629
 21
-59.20171960892208
 31
0.0
  0
LINE
  5
28D
102
{ACAD_REACTORS
330
389
330
38A
102
}
330
9C
100
AcDbEntity
  8
0
  6
Continuous
 62
     2
100
AcDbLine
 10
29.78462461844796
 20
-59.85069920075978
 30
0.0
 11
29.78462461844796
 21
-59.20171960892208
 31
0.0
  0
LINE
  5
28E
102
{ACAD_REACTORS
330
389
330
38A
102
}
330
9C
100
AcDbEntity
  8
0
  6
Continuous
 62
     2
100
AcDbLine
 10
29.11429483541278
 20
-59.85069920075978
 30
0.0
 11
29.78462461844796
 21
-59.85069920075978
 31
0.0
  0
LINE
  5
28F
102
{ACAD_REACTORS
330
389
330
38A
102
}
330
9C
100
AcDbEntity
  8
0
  6
Continuous
 62
     2
100
AcDbLine
 10
29.11429483541278
 20
-61.72552913273296
 30
0.0
 11
29.11429483541278
 21
-59.85069920075978
 31
0.0
  0
LINE
  5
290
102
{ACAD_REACTORS
330
387
330
388
102
}
330
9C
100
AcDbEntity
  8
0
  6
Continuous
 62
     2
100
AcDbLine
 10
29.66645586359297
 20
-58.94933865655582
 30
0.0
 11
29.66645586359297
 21
-57.86770600349416
 31
0.0
  0
LINE
  5
291
102
{ACAD_REACTORS
330
387
330
388
102
}
330
9C
100
AcDbEntity
  8
0
  6
Continuous
 62
     2
100
AcDbLine
 10
28.68067677089337
 20
-56.42552913274494
 30
0.0
 11
28.68067677089337
 21
-58.94933865655582
 31
0.0
  0
LINE
  5
292
102
{ACAD_REACTORS
330
387
330
388
102
}
330
9C
100
AcDbEntity
  8
0
  6
Continuous
 62
     2
100
AcDbLine
 10
29.66645586359297
 20
-56.42552913274494
 30
0.0
 11
28.68067677089337
 21
-56.42552913274494
 31
0.0
  0
LINE
  5
293
102
{ACAD_REACTORS
330
387
330
388
102
}
330
9C
100
AcDbEntity
  8
0
  6
Continuous
 62
     2
100
AcDbLine
 10
30.69166612000129
 20
-56.42552913274494
 30
0.0
 11
30.69166612000129
 21
-57.50716178580706
 31
0.0
  0
LINE
  5
294
102
{ACAD_REACTORS
330
385
330
386
102
}
330
9C
100
AcDbEntity
  8
0
  6
Continuous
 62
     2
100
AcDbLine
 10
24.34312402674487
 20
-59.20171960892208
 30
0.0
 11
24.34312402674487
 21
-61.72552913273296
 31
0.0
  0
LINE
  5
295
102
{ACAD_REACTORS
330
385
330
386
102
}
330
9C
100
AcDbEntity
  8
0
  6
Continuous
 62
     2
100
AcDbLine
 10
25.32890311944539
 20
-59.20171960892208
 30
0.0
 11
24.34312402674487
 21
-59.20171960892208
 31
0.0
  0
LINE
  5
296
102
{ACAD_REACTORS
330
385
330
386
102
}
330
9C
100
AcDbEntity
  8
0
  6
Continuous
 62
     2
100
AcDbLine
 10
26.35411337585268
 20
-61.72552913273296
 30
0.0
 11
27.33989246855228
 21
-61.72552913273296
 31
0.0
  0
LINE
  5
297
102
{ACAD_REACTORS
330
385
330
386
102
}
330
9C
100
AcDbEntity
  8
0
  6
Continuous
 62
     2
100
AcDbLine
 10
24.34312402674487
 20
-61.72552913273296
 30
0.0
 11
25.32890311944539
 21
-61.72552913273296
 31
0.0
  0
LINE
  5
298
102
{ACAD_REACTORS
330
395
330
396
102
}
330
9C
100
AcDbEntity
  8
0
  6
Continuous
 62
     2
100
AcDbLine
 10
27.37944836852927
 20
-57.39899852050087
 30
0.0
 11
27.37944836852927
 21
-57.00239988104488
 31
0.0
  0
LINE
  5
299
102
{ACAD_REACTORS
330
395
330
396
102
}
330
9C
100
AcDbEntity
  8
0
  6
Continuous
 62
     2
100
AcDbLine
 10
28.48352095235379
 20
-57.39899852050087
 30
0.0
 11
27.37944836852927
 21
-57.39899852050087
 31
0.0
  0
LINE
  5
29A
102
{ACAD_REACTORS
330
395
330
396
102
}
330
9C
100
AcDbEntity
  8
0
  6
Continuous
 62
     2
100
AcDbLine
 10
28.48352095235379
 20
-57.97586926880035
 30
0.0
 11
28.48352095235379
 21
-57.39899852050087
 31
0.0
  0
LINE
  5
29B
102
{ACAD_REACTORS
330
395
330
396
102
}
330
9C
100
AcDbEntity
  8
0
  6
Continuous
 62
     2
100
AcDbLine
 10
27.37944836852927
 20
-57.97586926880035
 30
0.0
 11
28.48352095235379
 21
-57.97586926880035
 31
0.0
  0
LINE
  5
29C
102
{ACAD_REACTORS
330
383
330
384
102
}
330
9C
100
AcDbEntity
  8
0
  6
Continuous
 62
     2
100
AcDbLine
 10
24.50097341784587
 20
-56.42552913274494
 30
0.0
 11
24.50097341784587
 21
-58.94933865655582
 31
0.0
  0
LINE
  5
29D
102
{ACAD_REACTORS
330
383
330
384
102
}
330
9C
100
AcDbEntity
  8
0
  6
Continuous
 62
     2
100
AcDbLine
 10
24.50097341784587
 20
-58.94933865655582
 30
0.0
 11
23.51519432514627
 21
-58.94933865655582
 31
0.0
  0
LINE
  5
29E
102
{ACAD_REACTORS
330
383
330
384
102
}
330
9C
100
AcDbEntity
  8
0
  6
Continuous
 62
     2
100
AcDbLine
 10
23.51519432514627
 20
-58.94933865655582
 30
0.0
 11
23.51519432514627
 21
-58.01192369056923
 31
0.0
  0
LINE
  5
29F
102
{ACAD_REACTORS
330
383
330
384
102
}
330
9C
100
AcDbEntity
  8
0
  6
Continuous
 62
     2
100
AcDbLine
 10
22.64770872356988
 20
-58.94933865655582
 30
0.0
 11
21.66192963087028
 21
-58.94933865655582
 31
0.0
  0
LINE
  5
2A0
102
{ACAD_REACTORS
330
383
330
384
102
}
330
9C
100
AcDbEntity
  8
0
  6
Continuous
 62
     2
100
AcDbLine
 10
21.66192963087028
 20
-56.42552913274494
 30
0.0
 11
22.64770872356988
 21
-56.42552913274494
 31
0.0
  0
LINE
  5
2A1
102
{ACAD_REACTORS
330
383
330
384
102
}
330
9C
100
AcDbEntity
  8
0
  6
Continuous
 62
     2
100
AcDbLine
 10
22.64770872356988
 20
-56.42552913274494
 30
0.0
 11
22.64770872356988
 21
-57.30886246607929
 31
0.0
  0
LINE
  5
2A2
102
{ACAD_REACTORS
330
383
330
384
102
}
330
9C
100
AcDbEntity
  8
0
  6
Continuous
 62
     2
100
AcDbLine
 10
22.64770872356988
 20
-57.30886246607929
 30
0.0
 11
23.51519432514627
 21
-57.30886246607929
 31
0.0
  0
LINE
  5
2A3
102
{ACAD_REACTORS
330
391
330
392
102
}
330
9C
100
AcDbEntity
  8
0
  6
Continuous
 62
     2
100
AcDbLine
 10
20.04525191884247
 20
-56.97355049261273
 30
0.0
 11
20.30747924243079
 21
-56.97355049261273
 31
0.0
  0
LINE
  5
2A4
102
{ACAD_REACTORS
330
391
330
392
102
}
330
9C
100
AcDbEntity
  8
0
  6
Continuous
 62
     2
100
AcDbLine
 10
20.04525191884247
 20
-57.55679648380476
 30
0.0
 11
20.30747924243079
 21
-57.55679648380476
 31
0.0
  0
LINE
  5
2A5
102
{ACAD_REACTORS
330
391
330
392
102
}
330
9C
100
AcDbEntity
  8
0
  6
Continuous
 62
     2
100
AcDbLine
 10
19.02004166243418
 20
-56.42552913274494
 30
0.0
 11
19.02004166243418
 21
-58.94933865655582
 31
0.0
  0
LINE
  5
2A6
102
{ACAD_REACTORS
330
391
330
392
102
}
330
9C
100
AcDbEntity
  8
0
  6
Continuous
 62
     2
100
AcDbLine
 10
19.02004166243418
 20
-56.42552913274494
 30
0.0
 11
20.67233256990056
 21
-56.42552913274494
 31
0.0
  0
LINE
  5
2A7
102
{ACAD_REACTORS
330
391
330
392
102
}
330
9C
100
AcDbEntity
  8
0
  6
Continuous
 62
     2
100
AcDbLine
 10
20.04525191884247
 20
-58.16993515147829
 30
0.0
 11
20.67233256990056
 21
-58.16993515147829
 31
0.0
  0
LINE
  5
2A8
102
{ACAD_REACTORS
330
397
330
398
102
}
330
9C
100
AcDbEntity
  8
0
  6
Continuous
 62
     2
100
AcDbLine
 10
13.98161518863518
 20
-57.27534109855878
 30
0.0
 11
13.98161518863518
 21
-60.87571716692003
 31
0.0
  0
LINE
  5
2A9
102
{ACAD_REACTORS
330
397
330
398
102
}
330
9C
100
AcDbEntity
  8
0
  6
Continuous
 62
     2
100
AcDbLine
 10
14.24253826555727
 20
-57.01441802163629
 30
0.0
 11
15.46223517548248
 21
-57.01441802163629
 31
0.0
  0
LINE
  5
2AA
102
{ACAD_REACTORS
330
397
330
398
102
}
330
9C
100
AcDbEntity
  8
0
  6
Continuous
 62
     2
100
AcDbLine
 10
15.72315825240528
 20
-57.77453499860883
 30
0.0
 11
15.72315825240528
 21
-57.27534109855878
 31
0.0
  0
LINE
  5
2AB
102
{ACAD_REACTORS
330
397
330
398
102
}
330
9C
100
AcDbEntity
  8
0
  6
Continuous
 62
     2
100
AcDbLine
 10
15.72315825240528
 20
-60.87571716692003
 30
0.0
 11
15.72315825240528
 21
-59.61061722350542
 31
0.0
  0
LINE
  5
2AC
102
{ACAD_REACTORS
330
397
330
398
102
}
330
9C
100
AcDbEntity
  8
0
  6
Continuous
 62
     2
100
AcDbLine
 10
18.27511464073936
 20
-61.72552913273296
 30
0.0
 11
13.75171621865928
 21
-61.72552913273296
 31
0.0
  0
LINE
  5
2AD
102
{ACAD_REACTORS
330
397
330
398
102
}
330
9C
100
AcDbEntity
  8
0
  6
Continuous
 62
     2
100
AcDbLine
 10
18.62573002535419
 20
-56.77614451737463
 30
0.0
 11
18.62573002535419
 21
-61.37491374811862
 31
0.0
  0
LINE
  5
2AE
102
{ACAD_REACTORS
330
397
330
398
102
}
330
9C
100
AcDbEntity
  8
0
  6
Continuous
 62
     2
100
AcDbLine
 10
13.75171621865928
 20
-56.42552913275995
 30
0.0
 11
18.27511464073936
 21
-56.42552913275995
 31
0.0
  0
LINE
  5
2AF
102
{ACAD_REACTORS
330
397
330
398
102
}
330
9C
100
AcDbEntity
  8
0
  6
Continuous
 62
     2
100
AcDbLine
 10
13.40110083404537
 20
-56.77614451737463
 30
0.0
 11
13.40110083404537
 21
-61.37491374811862
 31
0.0
  0
LINE
  5
2B0
102
{ACAD_REACTORS
330
397
330
398
102
}
330
9C
100
AcDbEntity
  8
0
  6
Continuous
 62
     2
100
AcDbLine
 10
15.46223517548248
 20
-61.13664024384286
 30
0.0
 11
14.24253826555727
 21
-61.13664024384286
 31
0.0
  0
LINE
  5
2B1
102
{ACAD_REACTORS
330
391
330
392
102
}
330
9C
100
AcDbEntity
  8
0
  6
Continuous
 62
     2
100
AcDbLine
 10
20.04525191884247
 20
-58.94933865655582
 30
0.0
 11
20.04525191884247
 21
-58.16993515147829
 31
0.0
  0
LINE
  5
2B2
102
{ACAD_REACTORS
330
391
330
392
102
}
330
9C
100
AcDbEntity
  8
0
  6
Continuous
 62
     2
100
AcDbLine
 10
19.02004166243418
 20
-58.94933865655582
 30
0.0
 11
20.04525191884247
 21
-58.94933865655582
 31
0.0
  0
LINE
  5
2B3
102
{ACAD_REACTORS
330
391
330
392
102
}
330
9C
100
AcDbEntity
  8
0
  6
Continuous
 62
     2
100
AcDbLine
 10
20.04525191884247
 20
-57.55679648380476
 30
0.0
 11
20.04525191884247
 21
-56.97355049261273
 31
0.0
  0
LINE
  5
2B4
102
{ACAD_REACTORS
330
383
330
384
102
}
330
9C
100
AcDbEntity
  8
0
  6
Continuous
 62
     2
100
AcDbLine
 10
21.66192963087028
 20
-56.42552913274494
 30
0.0
 11
21.66192963087028
 21
-58.94933865655582
 31
0.0
  0
LINE
  5
2B5
102
{ACAD_REACTORS
330
383
330
384
102
}
330
9C
100
AcDbEntity
  8
0
  6
Continuous
 62
     2
100
AcDbLine
 10
22.64770872356988
 20
-58.01192369056923
 30
0.0
 11
22.64770872356988
 21
-58.94933865655582
 31
0.0
  0
LINE
  5
2B6
102
{ACAD_REACTORS
330
383
330
384
102
}
330
9C
100
AcDbEntity
  8
0
  6
Continuous
 62
     2
100
AcDbLine
 10
23.51519432514627
 20
-58.01192369056923
 30
0.0
 11
22.64770872356988
 21
-58.01192369056923
 31
0.0
  0
LINE
  5
2B7
102
{ACAD_REACTORS
330
383
330
384
102
}
330
9C
100
AcDbEntity
  8
0
  6
Continuous
 62
     2
100
AcDbLine
 10
23.51519432514627
 20
-56.42552913274494
 30
0.0
 11
24.50097341784587
 21
-56.42552913274494
 31
0.0
  0
LINE
  5
2B8
102
{ACAD_REACTORS
330
383
330
384
102
}
330
9C
100
AcDbEntity
  8
0
  6
Continuous
 62
     2
100
AcDbLine
 10
23.51519432514627
 20
-57.30886246607929
 30
0.0
 11
23.51519432514627
 21
-56.42552913274494
 31
0.0
  0
LINE
  5
2B9
102
{ACAD_REACTORS
330
395
330
396
102
}
330
9C
100
AcDbEntity
  8
0
  6
Continuous
 62
     2
100
AcDbLine
 10
28.48352095235379
 20
-57.00239988104488
 30
0.0
 11
28.48352095235379
 21
-56.42552913274494
 31
0.0
  0
LINE
  5
2BA
102
{ACAD_REACTORS
330
395
330
396
102
}
330
9C
100
AcDbEntity
  8
0
  6
Continuous
 62
     2
100
AcDbLine
 10
25.87995093270007
 20
-56.42552913274494
 30
0.0
 11
28.48352095235379
 21
-56.42552913274494
 31
0.0
  0
LINE
  5
2BB
102
{ACAD_REACTORS
330
395
330
396
102
}
330
9C
100
AcDbEntity
  8
0
  6
Continuous
 62
     2
100
AcDbLine
 10
25.87995093270007
 20
-58.94933865655582
 30
0.0
 11
28.48352095235379
 21
-58.94933865655582
 31
0.0
  0
LINE
  5
2BC
102
{ACAD_REACTORS
330
395
330
396
102
}
330
9C
100
AcDbEntity
  8
0
  6
Continuous
 62
     2
100
AcDbLine
 10
28.48352095235379
 20
-58.94933865655582
 30
0.0
 11
28.48352095235379
 21
-58.37246790825634
 31
0.0
  0
LINE
  5
2BD
102
{ACAD_REACTORS
330
395
330
396
102
}
330
9C
100
AcDbEntity
  8
0
  6
Continuous
 62
     2
100
AcDbLine
 10
28.48352095235379
 20
-58.37246790825634
 30
0.0
 11
27.37944836852927
 21
-58.37246790825634
 31
0.0
  0
LINE
  5
2BE
102
{ACAD_REACTORS
330
395
330
396
102
}
330
9C
100
AcDbEntity
  8
0
  6
Continuous
 62
     2
100
AcDbLine
 10
27.37944836852927
 20
-58.37246790825634
 30
0.0
 11
27.37944836852927
 21
-57.97586926880035
 31
0.0
  0
LINE
  5
2BF
102
{ACAD_REACTORS
330
395
330
396
102
}
330
9C
100
AcDbEntity
  8
0
  6
Continuous
 62
     2
100
AcDbLine
 10
27.37944836852927
 20
-57.00239988104488
 30
0.0
 11
28.48352095235379
 21
-57.00239988104488
 31
0.0
  0
LINE
  5
2C0
102
{ACAD_REACTORS
330
385
330
386
102
}
330
9C
100
AcDbEntity
  8
0
  6
Continuous
 62
     2
100
AcDbLine
 10
25.32890311944539
 20
-61.72552913273296
 30
0.0
 11
25.32890311944539
 21
-60.6438964796713
 31
0.0
  0
LINE
  5
2C1
102
{ACAD_REACTORS
330
385
330
386
102
}
330
9C
100
AcDbEntity
  8
0
  6
Continuous
 62
     2
100
AcDbLine
 10
25.32890311944539
 20
-60.6438964796713
 30
0.0
 11
26.35411337585268
 21
-61.72552913273296
 31
0.0
  0
LINE
  5
2C2
102
{ACAD_REACTORS
330
385
330
386
102
}
330
9C
100
AcDbEntity
  8
0
  6
Continuous
 62
     2
100
AcDbLine
 10
27.33989246855228
 20
-61.72552913273296
 30
0.0
 11
27.33989246855228
 21
-59.20171960892208
 31
0.0
  0
LINE
  5
2C3
102
{ACAD_REACTORS
330
385
330
386
102
}
330
9C
100
AcDbEntity
  8
0
  6
Continuous
 62
     2
100
AcDbLine
 10
27.33989246855228
 20
-59.20171960892208
 30
0.0
 11
26.35411337585268
 21
-59.20171960892208
 31
0.0
  0
LINE
  5
2C4
102
{ACAD_REACTORS
330
385
330
386
102
}
330
9C
100
AcDbEntity
  8
0
  6
Continuous
 62
     2
100
AcDbLine
 10
26.35411337585268
 20
-59.20171960892208
 30
0.0
 11
26.35411337585268
 21
-60.28335226198419
 31
0.0
  0
LINE
  5
2C5
102
{ACAD_REACTORS
330
385
330
386
102
}
330
9C
100
AcDbEntity
  8
0
  6
Continuous
 62
     2
100
AcDbLine
 10
26.35411337585268
 20
-60.28335226198419
 30
0.0
 11
25.32890311944539
 21
-59.20171960892208
 31
0.0
  0
LINE
  5
2C6
102
{ACAD_REACTORS
330
387
330
388
102
}
330
9C
100
AcDbEntity
  8
0
  6
Continuous
 62
     2
100
AcDbLine
 10
29.66645586359297
 20
-57.86770600349416
 30
0.0
 11
30.69166612000129
 21
-58.94933865655582
 31
0.0
  0
LINE
  5
2C7
102
{ACAD_REACTORS
330
387
330
388
102
}
330
9C
100
AcDbEntity
  8
0
  6
Continuous
 62
     2
100
AcDbLine
 10
30.69166612000129
 20
-58.94933865655582
 30
0.0
 11
31.67744521270086
 21
-58.94933865655582
 31
0.0
  0
LINE
  5
2C8
102
{ACAD_REACTORS
330
387
330
388
102
}
330
9C
100
AcDbEntity
  8
0
  6
Continuous
 62
     2
100
AcDbLine
 10
31.67744521270086
 20
-58.94933865655582
 30
0.0
 11
31.67744521270086
 21
-56.42552913274494
 31
0.0
  0
LINE
  5
2C9
102
{ACAD_REACTORS
330
387
330
388
102
}
330
9C
100
AcDbEntity
  8
0
  6
Continuous
 62
     2
100
AcDbLine
 10
31.67744521270086
 20
-56.42552913274494
 30
0.0
 11
30.69166612000129
 21
-56.42552913274494
 31
0.0
  0
LINE
  5
2CA
102
{ACAD_REACTORS
330
387
330
388
102
}
330
9C
100
AcDbEntity
  8
0
  6
Continuous
 62
     2
100
AcDbLine
 10
30.69166612000129
 20
-57.50716178580706
 30
0.0
 11
29.66645586359297
 21
-56.42552913274494
 31
0.0
  0
LINE
  5
2CB
102
{ACAD_REACTORS
330
387
330
388
102
}
330
9C
100
AcDbEntity
  8
0
  6
Continuous
 62
     2
100
AcDbLine
 10
28.68067677089337
 20
-58.94933865655582
 30
0.0
 11
29.66645586359297
 21
-58.94933865655582
 31
0.0
  0
LINE
  5
2CC
102
{ACAD_REACTORS
330
389
330
38A
102
}
330
9C
100
AcDbEntity
  8
0
  6
Continuous
 62
     2
100
AcDbLine
 10
27.45818595967629
 20
-59.20171960892208
 30
0.0
 11
27.45818595967629
 21
-59.85069920075978
 31
0.0
  0
LINE
  5
2CD
102
{ACAD_REACTORS
330
389
330
38A
102
}
330
9C
100
AcDbEntity
  8
0
  6
Continuous
 62
     2
100
AcDbLine
 10
28.12851574271318
 20
-59.85069920075978
 30
0.0
 11
28.12851574271318
 21
-61.72552913273296
 31
0.0
  0
LINE
  5
2CE
102
{ACAD_REACTORS
330
389
330
38A
102
}
330
9C
100
AcDbEntity
  8
0
  6
Continuous
 62
     2
100
AcDbLine
 10
28.12851574271318
 20
-61.72552913273296
 30
0.0
 11
29.11429483541278
 21
-61.72552913273296
 31
0.0
  0
LINE
  5
2CF
102
{ACAD_REACTORS
330
38B
330
38C
102
}
330
9C
100
AcDbEntity
  8
0
  6
Continuous
 62
     2
100
AcDbLine
 10
31.55192003658598
 20
-61.72552913273296
 30
0.0
 11
31.37714313288697
 21
-61.27845430280081
 31
0.0
  0
LINE
  5
2D0
102
{ACAD_REACTORS
330
38B
330
38C
102
}
330
9C
100
AcDbEntity
  8
0
  6
Continuous
 62
     2
100
AcDbLine
 10
31.42179719634927
 20
-59.20171960892208
 30
0.0
 11
32.57713029299418
 21
-61.72552913273296
 31
0.0
  0
LINE
  5
2D1
102
{ACAD_REACTORS
330
38B
330
38C
102
}
330
9C
100
AcDbEntity
  8
0
  6
Continuous
 62
     2
100
AcDbLine
 10
30.39658693994198
 20
-59.20171960892208
 30
0.0
 11
31.42179719634927
 21
-59.20171960892208
 31
0.0
  0
LINE
  5
2D2
102
{ACAD_REACTORS
330
38B
330
38C
102
}
330
9C
100
AcDbEntity
  8
0
  6
Continuous
 62
     2
100
AcDbLine
 10
29.24125384329798
 20
-61.72552913273296
 30
0.0
 11
30.26646409970539
 21
-61.72552913273296
 31
0.0
  0
LINE
  5
2D3
102
{ACAD_REACTORS
330
38B
330
38C
102
}
330
9C
100
AcDbEntity
  8
0
  6
Continuous
 62
     2
100
AcDbLine
 10
30.66112162418548
 20
-60.71600532320861
 30
0.0
 11
31.15726251210487
 21
-60.71600532320861
 31
0.0
  0
LINE
  5
2D4
102
{ACAD_REACTORS
330
38B
330
38C
102
}
330
9C
100
AcDbEntity
  8
0
  6
Continuous
 62
     2
100
AcDbLine
 10
31.15726251210487
 20
-60.71600532320861
 30
0.0
 11
30.90919206814607
 21
-60.08144750007909
 31
0.0
  0
LINE
  5
2D5
102
{ACAD_REACTORS
330
38D
330
38E
102
}
330
9C
100
AcDbEntity
  8
0
  6
Continuous
 62
     2
100
AcDbLine
 10
32.89981128764867
 20
-58.94933865655582
 30
0.0
 11
31.87460103124127
 21
-58.94933865655582
 31
0.0
  0
LINE
  5
2D6
102
{ACAD_REACTORS
330
38F
330
390
102
}
330
9C
100
AcDbEntity
  8
0
  6
Continuous
 62
     2
100
AcDbLine
 10
34.15766540993388
 20
-58.94933865655582
 30
0.0
 11
32.99838919691888
 21
-58.94933865655582
 31
0.0
  0
LINE
  5
2D7
102
{ACAD_REACTORS
330
38F
330
390
102
}
330
9C
100
AcDbEntity
  8
0
  6
Continuous
 62
     2
100
AcDbLine
 10
34.15766540993388
 20
-58.94933865655582
 30
0.0
 11
34.73336040007078
 21
-58.29832065218079
 31
0.0
  0
LINE
  5
2D8
102
{ACAD_REACTORS
330
38F
330
390
102
}
330
9C
100
AcDbEntity
  8
0
  6
Continuous
 62
     2
100
AcDbLine
 10
35.23019306279218
 20
-56.42552913274494
 30
0.0
 11
36.38946927580636
 21
-56.42552913274494
 31
0.0
  0
LINE
  5
2D9
102
{ACAD_REACTORS
330
38F
330
390
102
}
330
9C
100
AcDbEntity
  8
0
  6
Continuous
 62
     2
100
AcDbLine
 10
33.07725152433437
 20
-56.42552913274494
 30
0.0
 11
34.15372229356368
 21
-57.64284362037813
 31
0.0
  0
LINE
  5
2DA
102
{ACAD_REACTORS
330
38F
330
390
102
}
330
9C
100
AcDbEntity
  8
0
  6
Continuous
 62
     2
100
AcDbLine
 10
32.99838919691888
 20
-58.94933865655582
 30
0.0
 11
34.15372229356368
 21
-57.64284362037813
 31
0.0
  0
LINE
  5
2DB
102
{ACAD_REACTORS
330
399
330
39A
102
}
330
9C
100
AcDbEntity
  8
0
  6
Continuous
 62
     2
100
AcDbLine
 10
34.53620458153029
 20
-60.86022301028368
 30
0.0
 11
34.53620458153029
 21
-61.58131144565834
 31
0.0
  0
LINE
  5
2DC
102
{ACAD_REACTORS
330
399
330
39A
102
}
330
9C
100
AcDbEntity
  8
0
  6
Continuous
 62
     2
100
AcDbLine
 10
33.90012413280186
 20
-59.85069920075978
 30
0.0
 11
34.81222272748627
 21
-59.85069920075978
 31
0.0
  0
LINE
  5
2DD
102
{ACAD_REACTORS
330
39B
330
39C
102
}
330
9C
100
AcDbEntity
  8
0
  6
Continuous
 62
     2
100
AcDbLine
 10
21.22818683008248
 20
-60.86022301028322
 30
0.0
 11
21.22818683008248
 21
-61.58131144565789
 31
0.0
  0
LINE
  5
2DE
102
{ACAD_REACTORS
330
39B
330
39C
102
}
330
9C
100
AcDbEntity
  8
0
  6
Continuous
 62
     2
100
AcDbLine
 10
21.22818683008248
 20
-60.06702573137181
 30
0.0
 11
21.22818683008248
 21
-59.34593729599726
 31
0.0
  0
ARC
  5
2DF
102
{ACAD_REACTORS
330
39B
330
39C
102
}
330
9C
100
AcDbEntity
  8
0
  6
Continuous
 62
     2
100
AcDbCircle
 10
20.12411417130747
 20
-63.2013772181466
 30
0.0
 40
4.010410630989974
100
AcDbArc
 50
74.02000874164719
 51
84.84185523037536
  0
ARC
  5
2E0
102
{ACAD_REACTORS
330
39B
330
39C
102
}
330
9C
100
AcDbEntity
  8
0
  6
Continuous
 62
     2
100
AcDbCircle
 10
20.60018079011218
 20
-60.59331080832487
 30
0.0
 40
0.7487023016407632
100
AcDbArc
 50
71.55192388186356
 51
113.3722778881297
  0
ARC
  5
2E1
102
{ACAD_REACTORS
330
39B
330
39C
102
}
330
9C
100
AcDbEntity
  8
0
  6
Continuous
 62
     2
100
AcDbCircle
 10
20.47089150688728
 20
-60.63310489094226
 30
0.0
 40
0.4227934381774303
100
AcDbArc
 50
208.5214732576854
 51
246.6277221118326
  0
ARC
  5
2E2
102
{ACAD_REACTORS
330
39B
330
39C
102
}
330
9C
100
AcDbEntity
  8
0
  6
Continuous
 62
     2
100
AcDbCircle
 10
20.60018079011218
 20
-60.33393793333062
 30
0.0
 40
0.748702301640452
100
AcDbArc
 50
246.6277221118702
 51
288.4480761181474
  0
ARC
  5
2E3
102
{ACAD_REACTORS
330
39B
330
39C
102
}
330
9C
100
AcDbEntity
  8
0
  6
Continuous
 62
     2
100
AcDbCircle
 10
20.25458762179738
 20
-59.29794968867179
 30
0.0
 40
1.840813230556041
100
AcDbArc
 50
288.4480761181312
 51
301.9309089499621
  0
ARC
  5
2E4
102
{ACAD_REACTORS
330
397
330
398
102
}
330
9C
100
AcDbEntity
  8
0
  6
Continuous
 62
     2
100
AcDbCircle
 10
15.93634486757688
 20
-58.69257611105695
 30
0.0
 40
0.7535935125160691
100
AcDbArc
 50
295.3740086781786
 51
64.62599132180657
  0
ARC
  5
2E5
102
{ACAD_REACTORS
330
397
330
398
102
}
330
9C
100
AcDbEntity
  8
0
  6
Continuous
 62
     2
100
AcDbCircle
 10
16.37109089905457
 20
-57.27548777347465
 30
0.0
 40
0.2609230769224678
100
AcDbArc
 50
90.18896704255349
 51
180.0
  0
ARC
  5
2E6
102
{ACAD_REACTORS
330
399
330
39A
102
}
330
9C
100
AcDbEntity
  8
0
  6
Continuous
 62
     2
100
AcDbCircle
 10
33.90012413280186
 20
-60.63956118987233
 30
0.0
 40
0.7888619891125543
100
AcDbArc
 50
90.0
 51
109.3371432194286
  0
ARC
  5
2E7
102
{ACAD_REACTORS
330
399
330
39A
102
}
330
9C
100
AcDbEntity
  8
0
  6
Continuous
 62
     2
100
AcDbCircle
 10
34.09077476088268
 20
-60.46362437082769
 30
0.0
 40
0.7777353184585961
100
AcDbArc
 50
151.4785267423654
 51
208.5214732576719
  0
ARC
  5
2E8
102
{ACAD_REACTORS
330
399
330
39A
102
}
330
9C
100
AcDbEntity
  8
0
  6
Continuous
 62
     2
100
AcDbCircle
 10
33.90819854156166
 20
-60.33393793333062
 30
0.0
 40
0.7487023016407226
100
AcDbArc
 50
246.6277221118223
 51
288.4480761180815
  0
ARC
  5
2E9
102
{ACAD_REACTORS
330
399
330
39A
102
}
330
9C
100
AcDbEntity
  8
0
  6
Continuous
 62
     2
100
AcDbCircle
 10
33.56260537324607
 20
-59.29794968867225
 30
0.0
 40
1.840813230556051
100
AcDbArc
 50
288.4480761181321
 51
301.9309089499388
  0
ARC
  5
2EA
102
{ACAD_REACTORS
330
399
330
39A
102
}
330
9C
100
AcDbEntity
  8
0
  6
Continuous
 62
     2
100
AcDbCircle
 10
33.43213192275618
 20
-57.72587152350843
 30
0.0
 40
4.01041063099073
100
AcDbArc
 50
275.1581447696366
 51
285.9799912583383
  0
ARC
  5
2EB
102
{ACAD_REACTORS
330
399
330
39A
102
}
330
9C
100
AcDbEntity
  8
0
  6
Continuous
 62
     2
100
AcDbCircle
 10
33.67085596799237
 20
-60.3704091955924
 30
0.0
 40
1.355119937140845
100
AcDbArc
 50
195.0618917771011
 51
275.1581447696782
  0
ARC
  5
2EC
102
{ACAD_REACTORS
330
391
330
392
102
}
330
9C
100
AcDbEntity
  8
0
  6
Continuous
 62
     2
100
AcDbCircle
 10
20.67233256990056
 20
-57.29773214211161
 30
0.0
 40
0.8722030093666788
100
AcDbArc
 50
270.0
 51
90.0
  0
ARC
  5
2ED
102
{ACAD_REACTORS
330
397
330
398
102
}
330
9C
100
AcDbEntity
  8
0
  6
Continuous
 62
     2
100
AcDbCircle
 10
14.24253826555727
 20
-60.87571716692003
 30
0.0
 40
0.26092307692209
100
AcDbArc
 50
180.0
 51
270.0
  0
ARC
  5
2EE
102
{ACAD_REACTORS
330
397
330
398
102
}
330
9C
100
AcDbEntity
  8
0
  6
Continuous
 62
     2
100
AcDbCircle
 10
15.46223517548248
 20
-57.27534109855878
 30
0.0
 40
0.2609230769228006
100
AcDbArc
 50
0.0
 51
90.0
  0
ARC
  5
2EF
102
{ACAD_REACTORS
330
397
330
398
102
}
330
9C
100
AcDbEntity
  8
0
  6
Continuous
 62
     2
100
AcDbCircle
 10
15.46223517548248
 20
-57.77453499860883
 30
0.0
 40
0.2609230769223463
100
AcDbArc
 50
295.1944106485576
 51
0.0
  0
ARC
  5
2F0
102
{ACAD_REACTORS
330
397
330
398
102
}
330
9C
100
AcDbEntity
  8
0
  6
Continuous
 62
     2
100
AcDbCircle
 10
15.46223517548248
 20
-60.87571716692003
 30
0.0
 40
0.260923076922829
100
AcDbArc
 50
270.0
 51
0.0
  0
ARC
  5
2F1
102
{ACAD_REACTORS
330
397
330
398
102
}
330
9C
100
AcDbEntity
  8
0
  6
Continuous
 62
     2
100
AcDbCircle
 10
13.75171621865928
 20
-56.77614451737463
 30
0.0
 40
0.3506153846146844
100
AcDbArc
 50
90.0
 51
180.0
  0
ARC
  5
2F2
102
{ACAD_REACTORS
330
397
330
398
102
}
330
9C
100
AcDbEntity
  8
0
  6
Continuous
 62
     2
100
AcDbCircle
 10
18.27511464073936
 20
-56.77614451737463
 30
0.0
 40
0.3506153846148301
100
AcDbArc
 50
0.0
 51
90.0
  0
ARC
  5
2F3
102
{ACAD_REACTORS
330
397
330
398
102
}
330
9C
100
AcDbEntity
  8
0
  6
Continuous
 62
     2
100
AcDbCircle
 10
18.27511464073936
 20
-61.37491374811862
 30
0.0
 40
0.3506153846143363
100
AcDbArc
 50
270.0
 51
0.0
  0
ARC
  5
2F4
102
{ACAD_REACTORS
330
395
330
396
102
}
330
9C
100
AcDbEntity
  8
0
  6
Continuous
 62
     2
100
AcDbCircle
 10
25.89361372098028
 20
-57.68743389465055
 30
0.0
 40
0.6378510567600102
100
AcDbArc
 50
321.8795802028318
 51
38.12041979716014
  0
ARC
  5
2F5
102
{ACAD_REACTORS
330
395
330
396
102
}
330
9C
100
AcDbEntity
  8
0
  6
Continuous
 62
     2
100
AcDbCircle
 10
26.05868813118369
 20
-57.81696379392372
 30
0.0
 40
0.4280236140606732
100
AcDbArc
 50
218.1204197971536
 51
321.8795802028523
  0
ARC
  5
2F6
102
{ACAD_REACTORS
330
393
330
394
102
}
330
9C
100
AcDbEntity
  8
0
  6
Continuous
 62
     2
100
AcDbCircle
 10
23.01735954526617
 20
-60.46362437082769
 30
0.0
 40
1.204986845993431
100
AcDbArc
 50
297.5481481756999
 51
62.45185182429761
  0
ARC
  5
2F7
102
{ACAD_REACTORS
330
393
330
394
102
}
330
9C
100
AcDbEntity
  8
0
  6
Continuous
 62
     2
100
AcDbCircle
 10
22.55299608769047
 20
-60.46362437082769
 30
0.0
 40
1.20498684599291
100
AcDbArc
 50
117.548148175664
 51
242.4518518243384
  0
ARC
  5
2F8
102
{ACAD_REACTORS
330
393
330
394
102
}
330
9C
100
AcDbEntity
  8
0
  6
Continuous
 62
     2
100
AcDbCircle
 10
22.78517781647838
 20
-60.90872768512759
 30
0.0
 40
1.707008076205402
100
AcDbArc
 50
62.45185182430831
 51
117.5481481756682
  0
ARC
  5
2F9
102
{ACAD_REACTORS
330
393
330
394
102
}
330
9C
100
AcDbEntity
  8
0
  6
Continuous
 62
     2
100
AcDbCircle
 10
22.78517781647838
 20
-60.01852105652745
 30
0.0
 40
1.70700807620544
100
AcDbArc
 50
242.4518518243388
 51
297.5481481756847
  0
ARC
  5
2FA
102
{ACAD_REACTORS
330
395
330
396
102
}
330
9C
100
AcDbEntity
  8
0
  6
Continuous
 62
     2
100
AcDbCircle
 10
26.22376254138717
 20
-57.68743389465055
 30
0.0
 40
0.63785105675994
100
AcDbArc
 50
141.8795802028399
 51
218.1204197971682
  0
ARC
  5
2FB
102
{ACAD_REACTORS
330
395
330
396
102
}
330
9C
100
AcDbEntity
  8
0
  6
Continuous
 62
     2
100
AcDbCircle
 10
26.05868813118369
 20
-57.5579039953775
 30
0.0
 40
0.4280236140607291
100
AcDbArc
 50
38.12041979714775
 51
141.8795802028464
  0
ARC
  5
2FC
102
{ACAD_REACTORS
330
397
330
398
102
}
330
9C
100
AcDbEntity
  8
0
  6
Continuous
 62
     2
100
AcDbCircle
 10
13.75171621865928
 20
-61.37491374811862
 30
0.0
 40
0.35061538461391
100
AcDbArc
 50
180.0
 51
270.0
  0
ARC
  5
2FD
102
{ACAD_REACTORS
330
397
330
398
102
}
330
9C
100
AcDbEntity
  8
0
  6
Continuous
 62
     2
100
AcDbCircle
 10
15.46223517548248
 20
-59.61061722350542
 30
0.0
 40
0.2609230769228006
100
AcDbArc
 50
0.0
 51
64.80558935144369
  0
ARC
  5
2FE
102
{ACAD_REACTORS
330
397
330
398
102
}
330
9C
100
AcDbEntity
  8
0
  6
Continuous
 62
     2
100
AcDbCircle
 10
15.89412314868497
 20
-58.69257611105695
 30
0.0
 40
0.7536343169898668
100
AcDbArc
 50
115.1944106485227
 51
244.8055893514881
  0
ARC
  5
2FF
102
{ACAD_REACTORS
330
397
330
398
102
}
330
9C
100
AcDbEntity
  8
0
  6
Continuous
 62
     2
100
AcDbCircle
 10
14.24253826555727
 20
-57.27534109855878
 30
0.0
 40
0.2609230769224951
100
AcDbArc
 50
90.0
 51
180.0
  0
ARC
  5
300
102
{ACAD_REACTORS
330
391
330
392
102
}
330
9C
100
AcDbEntity
  8
0
  6
Continuous
 62
     2
100
AcDbCircle
 10
20.30747924243079
 20
-57.26517348820869
 30
0.0
 40
0.2916229955960716
100
AcDbArc
 50
270.0
 51
90.0
  0
ARC
  5
301
102
{ACAD_REACTORS
330
395
330
396
102
}
330
9C
100
AcDbEntity
  8
0
  6
Continuous
 62
     2
100
AcDbCircle
 10
25.87995093270007
 20
-57.68743389465055
 30
0.0
 40
1.261904761905612
100
AcDbArc
 50
90.0
 51
270.0
  0
ARC
  5
302
102
{ACAD_REACTORS
330
399
330
39A
102
}
330
9C
100
AcDbEntity
  8
0
  6
Continuous
 62
     2
100
AcDbCircle
 10
33.67085596799237
 20
-60.5568395460632
 30
0.0
 40
1.355119937140671
100
AcDbArc
 50
90.0
 51
164.9381082228992
  0
ARC
  5
303
102
{ACAD_REACTORS
330
399
330
39A
102
}
330
9C
100
AcDbEntity
  8
0
  6
Continuous
 62
     2
100
AcDbCircle
 10
33.32446932050337
 20
-60.46362437082769
 30
0.0
 40
0.9964100565230173
100
AcDbArc
 50
164.9381082229108
 51
195.0618917771022
  0
ARC
  5
304
102
{ACAD_REACTORS
330
399
330
39A
102
}
330
9C
100
AcDbEntity
  8
0
  6
Continuous
 62
     2
100
AcDbCircle
 10
33.77890925833597
 20
-60.63310489094226
 30
0.0
 40
0.4227934381784249
100
AcDbArc
 50
208.5214732576834
 51
246.627722111846
  0
ARC
  5
305
102
{ACAD_REACTORS
330
399
330
39A
102
}
330
9C
100
AcDbEntity
  8
0
  6
Continuous
 62
     2
100
AcDbCircle
 10
33.77890925833597
 20
-60.29414385071289
 30
0.0
 40
0.4227934381773005
100
AcDbArc
 50
109.3371432194784
 51
151.4785267424114
  0
ARC
  5
306
102
{ACAD_REACTORS
330
397
330
398
102
}
330
9C
100
AcDbEntity
  8
0
  6
Continuous
 62
     2
100
AcDbCircle
 10
16.37109089905457
 20
-60.09009099259697
 30
0.0
 40
0.2609230769229782
100
AcDbArc
 50
180.0
 51
269.8110329574465
  0
ARC
  5
307
102
{ACAD_REACTORS
330
397
330
398
102
}
330
9C
100
AcDbEntity
  8
0
  6
Continuous
 62
     2
100
AcDbCircle
 10
16.37573233319498
 20
-58.68278938303581
 30
0.0
 40
1.668232340440728
100
AcDbArc
 50
269.8110329575882
 51
90.18896704241182
  0
ARC
  5
308
102
{ACAD_REACTORS
330
397
330
398
102
}
330
9C
100
AcDbEntity
  8
0
  6
Continuous
 62
     2
100
AcDbCircle
 10
16.37109089905457
 20
-57.77593016067033
 30
0.0
 40
0.2609230769229782
100
AcDbArc
 50
180.0
 51
244.6259913216303
  0
ARC
  5
309
102
{ACAD_REACTORS
330
397
330
398
102
}
330
9C
100
AcDbEntity
  8
0
  6
Continuous
 62
     2
100
AcDbCircle
 10
16.37109089905457
 20
-59.60922206144403
 30
0.0
 40
0.2609230769227775
100
AcDbArc
 50
115.3740086783698
 51
180.0
  0
ARC
  5
30A
102
{ACAD_REACTORS
330
39B
330
39C
102
}
330
9C
100
AcDbEntity
  8
0
  6
Continuous
 62
     2
100
AcDbCircle
 10
20.36283821654368
 20
-60.5568395460632
 30
0.0
 40
1.355119937140984
100
AcDbArc
 50
84.84185523036038
 51
164.9381082228908
  0
ARC
  5
30B
102
{ACAD_REACTORS
330
39B
330
39C
102
}
330
9C
100
AcDbEntity
  8
0
  6
Continuous
 62
     2
100
AcDbCircle
 10
20.01645156905377
 20
-60.46362437082769
 30
0.0
 40
0.9964100565214014
100
AcDbArc
 50
164.9381082228858
 51
195.0618917771019
  0
ARC
  5
30C
102
{ACAD_REACTORS
330
39B
330
39C
102
}
330
9C
100
AcDbEntity
  8
0
  6
Continuous
 62
     2
100
AcDbCircle
 10
20.36283821654368
 20
-60.3704091955924
 30
0.0
 40
1.35511993713999
100
AcDbArc
 50
195.0618917770909
 51
275.1581447696418
  0
ARC
  5
30D
102
{ACAD_REACTORS
330
39B
330
39C
102
}
330
9C
100
AcDbEntity
  8
0
  6
Continuous
 62
     2
100
AcDbCircle
 10
20.12411417130747
 20
-57.72587152350843
 30
0.0
 40
4.01041063099019
100
AcDbArc
 50
275.1581447696246
 51
285.9799912583524
  0
ARC
  5
30E
102
{ACAD_REACTORS
330
39B
330
39C
102
}
330
9C
100
AcDbEntity
  8
0
  6
Continuous
 62
     2
100
AcDbCircle
 10
20.78275700943308
 20
-60.46362437082769
 30
0.0
 40
0.7777353184572434
100
AcDbArc
 50
151.4785267422725
 51
208.521473257705
  0
ARC
  5
30F
102
{ACAD_REACTORS
330
39B
330
39C
102
}
330
9C
100
AcDbEntity
  8
0
  6
Continuous
 62
     2
100
AcDbCircle
 10
20.47089150688728
 20
-60.29414385071289
 30
0.0
 40
0.4227934381776478
100
AcDbArc
 50
113.3722778881853
 51
151.4785267422994
  0
ARC
  5
310
102
{ACAD_REACTORS
330
39B
330
39C
102
}
330
9C
100
AcDbEntity
  8
0
  6
Continuous
 62
     2
100
AcDbCircle
 10
20.25458762179738
 20
-61.62929905298324
 30
0.0
 40
1.840813230556592
100
AcDbArc
 50
58.06909105003803
 51
71.55192388186887
  0
ARC
  5
311
102
{ACAD_REACTORS
330
393
330
394
102
}
330
9C
100
AcDbEntity
  8
0
  6
Continuous
 62
     2
100
AcDbCircle
 10
22.78517781647838
 20
-60.33409447155464
 30
0.0
 40
0.4280236140605782
100
AcDbArc
 50
38.12041979716361
 51
141.8795802028531
  0
ARC
  5
312
102
{ACAD_REACTORS
330
393
330
394
102
}
330
9C
100
AcDbEntity
  8
0
  6
Continuous
 62
     2
100
AcDbCircle
 10
22.95025222668167
 20
-60.46362437082769
 30
0.0
 40
0.637851056759849
100
AcDbArc
 50
141.8795802028343
 51
218.1204197971738
  0
ARC
  5
313
102
{ACAD_REACTORS
330
393
330
394
102
}
330
9C
100
AcDbEntity
  8
0
  6
Continuous
 62
     2
100
AcDbCircle
 10
22.78517781647838
 20
-60.5931542701004
 30
0.0
 40
0.4280236140610139
100
AcDbArc
 50
218.120419797194
 51
321.8795802027893
  0
ARC
  5
314
102
{ACAD_REACTORS
330
393
330
394
102
}
330
9C
100
AcDbEntity
  8
0
  6
Continuous
 62
     2
100
AcDbCircle
 10
22.62010340627478
 20
-60.46362437082769
 30
0.0
 40
0.6378510567600058
100
AcDbArc
 50
321.8795802028323
 51
38.12041979715963
  0
CIRCLE
  5
315
330
9C
100
AcDbEntity
  8
1
  6
Continuous
 62
     2
100
AcDbCircle
 10
11.83331529835317
 20
-52.70052913273889
 30
0.0
 40
1.5
  0
CIRCLE
  5
316
330
9C
100
AcDbEntity
  8
1
  6
Continuous
 62
     2
100
AcDbCircle
 10
11.83331529835317
 20
-52.70052913273889
 30
0.0
 40
1.0
  0
CIRCLE
  5
317
102
{ACAD_REACTORS
330
397
330
398
102
}
330
9C
100
AcDbEntity
  8
0
  6
Continuous
 62
     2
100
AcDbCircle
 10
15.91666303726888
 20
-58.69257611105695
 30
0.0
 40
0.3892387874201901
  0
MTEXT
  5
319
330
9C
100
AcDbEntity
  8
1
 62
     7
100
AcDbMText
 10
89.71345773662529
 20
-64.32552913273867
 30
0.0
 40
3.0
 41
0.0
 71
     5
 72
     1
  1
DT-LAN-CAT.6+
  7
CONVERTER_12
 73
     1
 44
1.20048019207683
  0
TEXT
  5
31B
330
9C
100
AcDbEntity
  8
1
 62
     3
100
AcDbText
 10
92.28586000000178
 20
-57.77552913273894
 30
0.0
 40
2.5
  1
 
 41
0.54
  7
CONVERTER_13
100
AcDbText
  0
MTEXT
  5
31D
330
9C
100
AcDbEntity
  8
1
 62
     2
100
AcDbMText
 10
73.78586000000217
 20
-47.32552913273889
 30
0.0
 40
1.8
 41
0.0
 71
     1
 72
     1
  1
part-rev.
  7
CONVERTER_14
 73
     1
 44
1.20048019207683
  0
MTEXT
  5
31F
330
9C
100
AcDbEntity
  8
1
 62
     2
100
AcDbMText
 10
44.24105547324979
 20
-48.25052913273896
 30
0.0
 40
1.4
 41
0.0
 71
     4
 72
     1
  1
SAP\Pchange-No.
  7
CONVERTER_15
 73
     1
 44
0.66026410564226
  0
MTEXT
  5
320
330
9C
100
AcDbEntity
  8
1
 62
     3
100
AcDbMText
 10
53.47329229136469
 20
-48.45052913273889
 30
0.0
 40
2.5
 41
0.0
 71
     4
 72
     1
  1
 
  7
CONVERTER_15
 73
     1
 44
1.20048019207683
  0
MTEXT
  5
321
330
9C
100
AcDbEntity
  8
1
 62
     3
100
AcDbMText
 10
83.99287988661018
 20
-47.22552913273887
 30
0.0
 40
2.0
 41
0.0
 71
     1
 72
     1
  1
ACL160080/50
  7
CONVERTER_14
 73
     1
 44
1.20048019207683
  0
TEXT
  5
323
330
9C
100
AcDbEntity
  8
1
 62
     3
100
AcDbText
 10
44.14105547324976
 20
-57.77552913273894
 30
0.0
 40
2.5
  1
KUNDENZCHNG-SELECT
 41
0.45
  7
CONVERTER_16
100
AcDbText
  0
TEXT
  5
324
330
9C
100
AcDbEntity
  8
1
 62
     3
100
AcDbText
 10
44.24105547325146
 20
-35.53075755913403
 30
0.0
 40
2.5
  1
 
 41
0.72
  7
CONVERTER_14
100
AcDbText
  0
TEXT
  5
325
330
9C
100
AcDbEntity
  8
1
 62
     3
100
AcDbText
 10
44.24105547325146
 20
-32.03075755913403
 30
0.0
 40
2.5
  1
 
 41
0.72
  7
CONVERTER_14
100
AcDbText
  0
TEXT
  5
326
330
9C
100
AcDbEntity
  8
1
 62
     3
100
AcDbText
 10
44.24105547325146
 20
-28.53075755913403
 30
0.0
 40
2.5
  1
 
 41
0.72
  7
CONVERTER_14
100
AcDbText
  0
MTEXT
  5
327
330
9C
100
AcDbEntity
  8
1
 62
     3
100
AcDbMText
 10
-260.4456729997392
 20
105.4107549809154
 30
0.0
 40
1.8
 41
0.0
 71
     7
 72
     1
  3
The copying, distribution and utilistion of this document as well as the communication\Pof the contents to others without expressed authorization is prohibited according to\P\U+00a718 UWG German Law. Offenders will be held liable for the payment of 
  1
damages\Paccording to (\U+00a719 UWG German Law). All rights reserved, in particular the right to\Pcarry out patent, utility model or ornamental design registrations.\PFlachsmarktstra\U+00dfe 8  D-32825 Blomberg
  7
CONVERTER_11
 11
6.123233764940082E-17
 21
1.0
 31
0.0
 73
     1
 44
0.99639855942377
  0
MTEXT
  5
328
330
9C
100
AcDbEntity
  8
1
 62
     3
100
AcDbMText
 10
-260.2914666886452
 20
-67.54861503323775
 30
0.0
 40
1.8
 41
0.0
 71
     7
 72
     1
  3
Weitergabe sowie Vervielf\U+00e4ltigung dieses Dokuments, Verwertung und\PMitteilung seines Inhalts gem\U+00e4\U+00df \U+00a718 UWG verboten, soweit nicht aus-\Pdr\U+00fccklich gestattet. Zuwiderhandlungen verpflichten zu Schadenersatz\P(\U+00a719 U
  1
WG). Alle Rechte vorbehalten, insbesondere das Recht, Patent-,\PGebrauchsmuster- oder Geschmacksmusteranmeldungen durchzuf\U+00fchren.\PPhoenix Contact GmbH & Co. KG
  7
CONVERTER_11
 11
6.123233764940082E-17
 21
1.0
 31
0.0
 73
     1
 44
0.99639855942377
  0
TEXT
  5
329
330
9C
100
AcDbEntity
  8
1
 62
     7
100
AcDbText
 10
-240.7141399999982
 20
220.4244708672619
 30
0.0
 40
2.5
  1
1
 41
0.9
  7
CONVERTER_11
100
AcDbText
  0
TEXT
  5
32A
330
9C
100
AcDbEntity
  8
1
 62
     7
100
AcDbText
 10
-172.380806666665
 20
220.4244708672619
 30
0.0
 40
2.5
  1
2
 41
0.9
  7
CONVERTER_11
100
AcDbText
  0
TEXT
  5
32B
330
9C
100
AcDbEntity
  8
1
 62
     7
100
AcDbText
 10
-104.0474733333316
 20
220.4244708672619
 30
0.0
 40
2.5
  1
3
 41
0.9
  7
CONVERTER_11
100
AcDbText
  0
TEXT
  5
32C
330
9C
100
AcDbEntity
  8
1
 62
     7
100
AcDbText
 10
-35.71413999999842
 20
220.4244708672619
 30
0.0
 40
2.5
  1
4
 41
0.9
  7
CONVERTER_11
100
AcDbText
  0
TEXT
  5
32D
330
9C
100
AcDbEntity
  8
1
 62
     7
100
AcDbText
 10
32.61919333333498
 20
220.4244708672619
 30
0.0
 40
2.5
  1
5
 41
0.9
  7
CONVERTER_11
100
AcDbText
  0
TEXT
  5
32E
330
9C
100
AcDbEntity
  8
1
 62
     7
100
AcDbText
 10
100.9525266666682
 20
220.4244708672619
 30
0.0
 40
2.5
  1
6
 41
0.9
  7
CONVERTER_11
100
AcDbText
  0
TEXT
  5
32F
330
9C
100
AcDbEntity
  8
1
 62
     7
100
AcDbText
 10
137.2858600000016
 20
189.5244708672616
 30
0.0
 40
2.5
  1
A
 41
0.9
  7
CONVERTER_11
100
AcDbText
  0
TEXT
  5
330
330
9C
100
AcDbEntity
  8
1
 62
     7
100
AcDbText
 10
137.2858600000016
 20
132.1244708672617
 30
0.0
 40
2.5
  1
B
 41
0.9
  7
CONVERTER_11
100
AcDbText
  0
TEXT
  5
331
330
9C
100
AcDbEntity
  8
1
 62
     7
100
AcDbText
 10
137.2858600000016
 20
74.72447086726186
 30
0.0
 40
2.5
  1
C
 41
0.9
  7
CONVERTER_11
100
AcDbText
  0
TEXT
  5
332
330
9C
100
AcDbEntity
  8
1
 62
     7
100
AcDbText
 10
137.2858600000016
 20
17.32447086726177
 30
0.0
 40
2.5
  1
D
 41
0.9
  7
CONVERTER_11
100
AcDbText
  0
TEXT
  5
333
330
9C
100
AcDbEntity
  8
1
 62
     7
100
AcDbText
 10
-172.380806666665
 20
-71.57552913273832
 30
0.0
 40
2.5
  1
2
 41
0.9
  7
CONVERTER_11
100
AcDbText
  0
TEXT
  5
334
330
9C
100
AcDbEntity
  8
1
 62
     7
100
AcDbText
 10
-240.7141399999982
 20
-71.57552913273832
 30
0.0
 40
2.5
  1
1
 41
0.9
  7
CONVERTER_11
100
AcDbText
  0
TEXT
  5
335
330
9C
100
AcDbEntity
  8
1
 62
     7
100
AcDbText
 10
137.2858600000016
 20
-40.07552913273833
 30
0.0
 40
2.5
  1
E
 41
0.9
  7
CONVERTER_11
100
AcDbText
  0
TEXT
  5
336
330
9C
100
AcDbEntity
  8
1
 62
     7
100
AcDbText
 10
-104.0474733333316
 20
-71.57552913273832
 30
0.0
 40
2.5
  1
3
 41
0.9
  7
CONVERTER_11
100
AcDbText
  0
TEXT
  5
337
330
9C
100
AcDbEntity
  8
1
 62
     7
100
AcDbText
 10
-35.71413999999842
 20
-71.57552913273832
 30
0.0
 40
2.5
  1
4
 41
0.9
  7
CONVERTER_11
100
AcDbText
  0
TEXT
  5
338
330
9C
100
AcDbEntity
  8
1
 62
     7
100
AcDbText
 10
32.61919333333478
 20
-71.57552913273832
 30
0.0
 40
2.5
  1
5
 41
0.9
  7
CONVERTER_11
100
AcDbText
  0
TEXT
  5
339
330
9C
100
AcDbEntity
  8
1
 62
     7
100
AcDbText
 10
100.9525266666682
 20
-71.57552913273832
 30
0.0
 40
2.5
  1
6
 41
0.9
  7
CONVERTER_11
100
AcDbText
  0
TEXT
  5
33A
330
9C
100
AcDbEntity
  8
1
 62
     7
100
AcDbText
 10
61.27096769230556
 20
-45.02552913273894
 30
0.0
 40
2.5
  1
15
 41
0.81
  7
CONVERTER_12
100
AcDbText
  0
TEXT
  5
33B
330
9C
100
AcDbEntity
  8
1
 62
     3
100
AcDbText
 10
119.4042682816807
 20
-45.02552913273894
 30
0.0
 40
2.5
  1
 
 41
0.54
  7
CONVERTER_13
100
AcDbText
  0
TEXT
  5
33C
330
9C
100
AcDbEntity
  8
1
 62
     7
100
AcDbText
 10
73.78586000000388
 20
-57.77552913273894
 30
0.0
 40
2.5
  1
00406265
 41
0.81
  7
CONVERTER_12
100
AcDbText
  0
TEXT
  5
33D
330
9C
100
AcDbEntity
  8
1
 62
     7
100
AcDbText
 10
44.64105547324957
 20
-45.02552913273894
 30
0.0
 40
2.5
  1
2881007
 41
0.81
  7
CONVERTER_12
100
AcDbText
  0
TEXT
  5
33E
330
9C
100
AcDbEntity
  8
1
 62
     3
100
AcDbText
 10
67.04105547324977
 20
-45.02552913273894
 30
0.0
 40
2.5
  1
 
 41
0.54
  7
CONVERTER_13
100
AcDbText
  0
MTEXT
  5
33F
330
9C
100
AcDbEntity
  8
1
 62
     3
100
AcDbMText
 10
113.9450641408413
 20
-45.02552913273883
 30
0.0
 40
2.5
 41
0.0
 71
     8
 72
     1
  1
1:1
  7
CONVERTER_14
 73
     1
 44
1.32052821128451
  0
TEXT
  5
340
330
9C
100
AcDbEntity
  8
1
 62
     7
100
AcDbText
 10
59.11460319526358
 20
-45.02552913273894
 30
0.0
 40
2.5
  1
/
 41
0.9
  7
CONVERTER_11
100
AcDbText
  0
MTEXT
  5
341
330
9C
100
AcDbEntity
  8
1
 62
     2
100
AcDbMText
 10
22.89105547324976
 20
-44.20052913273889
 30
0.0
 40
1.8
 41
0.0
 71
     5
 72
     1
  1
14.02.07
  7
CONVERTER_11
 73
     1
 44
1.32052821128451
  0
MTEXT
  5
342
330
9C
100
AcDbEntity
  8
1
 62
     2
100
AcDbMText
 10
22.89105547324976
 20
-48.45052913273889
 30
0.0
 40
1.8
 41
0.0
 71
     5
 72
     1
  1
 
  7
CONVERTER_11
 73
     1
 44
1.32052821128451
  0
MTEXT
  5
343
330
9C
100
AcDbEntity
  8
1
 62
     2
100
AcDbMText
 10
36.39105547324976
 20
-44.20052913273889
 30
0.0
 40
1.8
 41
0.0
 71
     5
 72
     1
  1
pbgc04
  7
CONVERTER_11
 73
     1
 44
1.32052821128451
  0
MTEXT
  5
344
330
9C
100
AcDbEntity
  8
1
 62
     2
100
AcDbMText
 10
36.39105547324976
 20
-48.45052913273889
 30
0.0
 40
1.8
 41
0.0
 71
     5
 72
     1
  1
 
  7
CONVERTER_11
 73
     1
 44
1.32052821128451
  0
MTEXT
  5
345
330
9C
100
AcDbEntity
  8
1
 62
     2
100
AcDbMText
 10
44.14105547324976
 20
-51.57552913273889
 30
0.0
 40
1.8
 41
0.0
 71
     1
 72
     1
  1
document-type
  7
CONVERTER_11
 73
     1
 44
1.20048019207683
  0
MTEXT
  5
346
330
9C
100
AcDbEntity
  8
1
 62
     2
100
AcDbMText
 10
11.44105547324986
 20
-40.87552913273885
 30
0.0
 40
1.8
 41
0.0
 71
     8
 72
     1
  1
00
  7
CONVERTER_11
 73
     1
 44
1.20048019207683
  0
MTEXT
  5
347
330
9C
100
AcDbEntity
  8
1
 62
     2
100
AcDbMText
 10
44.14105547324976
 20
-60.07552913273889
 30
0.0
 40
1.8
 41
0.0
 71
     1
 72
     1
  1
description
  7
CONVERTER_11
 73
     1
 44
1.20048019207683
  0
TEXT
  5
348
330
9C
100
AcDbEntity
  8
1
 62
     2
100
AcDbText
 10
31.17636428306346
 20
-66.3255291327389
 30
0.0
 40
1.8
  1
1
 41
0.9
  7
CONVERTER_11
100
AcDbText
  0
TEXT
  5
349
330
9C
100
AcDbEntity
  8
1
 62
     2
100
AcDbText
 10
16.38732044359196
 20
-66.37477778654079
 30
0.0
 40
1.8
  1
1
 41
0.9
  7
CONVERTER_11
100
AcDbText
  0
MTEXT
  5
34A
330
9C
100
AcDbEntity
  8
1
 62
     2
100
AcDbMText
 10
44.24105547324979
 20
-38.82552913273889
 30
0.0
 40
1.8
 41
0.0
 71
     1
 72
     1
  1
ident.-No. / RI
  7
CONVERTER_11
 73
     1
 44
1.20048019207683
  0
MTEXT
  5
34B
330
9C
100
AcDbEntity
  8
1
 62
     3
100
AcDbMText
 10
32.94105547324978
 20
-52.70052913273878
 30
0.0
 40
2.5
 41
0.0
 71
     5
 72
     1
  1
DIN A3
  7
CONVERTER_11
 73
     1
 44
1.20048019207683
  0
MTEXT
  5
34C
330
9C
100
AcDbEntity
  8
1
 62
     2
100
AcDbMText
 10
11.44105547324986
 20
-48.45052913273889
 30
0.0
 40
1.8
 41
0.0
 71
     5
 72
     1
  1
check.
  7
CONVERTER_11
 73
     1
 44
1.20048019207683
  0
MTEXT
  5
34D
330
9C
100
AcDbEntity
  8
1
 62
     2
100
AcDbMText
 10
11.44105547324986
 20
-44.20052913273889
 30
0.0
 40
1.8
 41
0.0
 71
     5
 72
     1
  1
creat.
  7
CONVERTER_11
 73
     1
 44
1.20048019207683
  0
MTEXT
  5
34E
330
9C
100
AcDbEntity
  8
1
 62
     2
100
AcDbMText
 10
110.5858600000017
 20
-38.82552913273889
 30
0.0
 40
1.8
 41
0.0
 71
     1
 72
     1
  1
scale
  7
CONVERTER_11
 73
     1
 44
1.20048019207683
  0
MTEXT
  5
34F
330
9C
100
AcDbEntity
  8
1
 62
     2
100
AcDbMText
 10
-64.88654226337523
 20
-66.3255291327389
 30
0.0
 40
1.8
 41
0.0
 71
     8
 72
     1
  1
revision
  7
CONVERTER_11
 73
     1
 44
1.32052821128451
  0
MTEXT
  5
350
330
9C
100
AcDbEntity
  8
1
 62
     2
100
AcDbMText
 10
36.39105547324976
 20
-40.87552913273885
 30
0.0
 40
1.8
 41
0.0
 71
     8
 72
     1
  1
name
  7
CONVERTER_11
 73
     1
 44
1.32052821128451
  0
MTEXT
  5
351
330
9C
100
AcDbEntity
  8
1
 62
     2
100
AcDbMText
 10
22.89105547324976
 20
-40.87552913273885
 30
0.0
 40
1.8
 41
0.0
 71
     8
 72
     1
  1
date
  7
CONVERTER_11
 73
     1
 44
1.32052821128451
  0
MTEXT
  5
352
330
9C
100
AcDbEntity
  8
1
 62
     2
100
AcDbMText
 10
-112.6141399999993
 20
-66.3255291327389
 30
0.0
 40
1.8
 41
0.0
 71
     8
 72
     1
  1
RI
  7
CONVERTER_11
 73
     1
 44
1.32052821128451
  0
MTEXT
  5
353
330
9C
100
AcDbEntity
  8
1
 62
     2
100
AcDbMText
 10
67.26624463084127
 20
-38.82552913273912
 30
0.0
 40
1.8
 41
0.0
 71
     1
 72
     1
  1
material
  7
CONVERTER_11
 73
     1
 44
1.20048019207683
  0
MTEXT
  5
354
330
9C
100
AcDbEntity
  8
1
 62
     2
100
AcDbMText
 10
-102.7641400000003
 20
-66.3255291327389
 30
0.0
 40
1.8
 41
0.0
 71
     8
 72
     1
  1
date
  7
CONVERTER_11
 73
     1
 44
1.32052821128451
  0
MTEXT
  5
355
330
9C
100
AcDbEntity
  8
1
 62
     2
100
AcDbMText
 10
-27.00894452675013
 20
-66.3255291327389
 30
0.0
 40
1.8
 41
0.0
 71
     8
 72
     1
  1
name
  7
CONVERTER_11
 73
     1
 44
1.32052821128451
  0
MTEXT
  5
356
330
9C
100
AcDbEntity
  8
1
 62
     2
100
AcDbMText
 10
-13.50894452675013
 20
-66.3255291327389
 30
0.0
 40
1.8
 41
0.0
 71
     8
 72
     1
  1
check.on
  7
CONVERTER_11
 73
     1
 44
1.32052821128451
  0
MTEXT
  5
357
330
9C
100
AcDbEntity
  8
1
 62
     2
100
AcDbMText
 10
-0.00894452675021
 20
-66.3255291327389
 30
0.0
 40
1.8
 41
0.0
 71
     8
 72
     1
  1
name
  7
CONVERTER_11
 73
     1
 44
1.32052821128451
  0
TEXT
  5
358
330
9C
100
AcDbEntity
  8
1
 62
     2
100
AcDbText
 10
7.74105547324987
 20
-66.33454634773057
 30
0.0
 40
1.8
  1
page
 41
0.9
  7
CONVERTER_11
100
AcDbText
  0
TEXT
  5
359
330
9C
100
AcDbEntity
  8
1
 62
     2
100
AcDbText
 10
25.94105547324978
 20
-66.33454634773045
 30
0.0
 40
1.8
  1
of
 41
0.9
  7
CONVERTER_11
100
AcDbText
  0
MTEXT
  5
35B
330
9C
100
AcDbEntity
  8
1
 62
     2
100
AcDbMText
 10
73.78586000000388
 20
-51.57552913273889
 30
0.0
 40
1.8
 41
0.0
 71
     1
 72
     1
  1
document-No.
  7
CONVERTER_17
 73
     1
 44
1.32052821128451
  0
MTEXT
  5
35C
330
9C
100
AcDbEntity
  8
1
 62
     2
100
AcDbMText
 10
119.7042682816806
 20
-38.82552913273889
 30
0.0
 40
1.8
 41
0.0
 71
     1
 72
     1
  1
dim.var.
  7
CONVERTER_11
 73
     1
 44
1.20048019207683
  0
MTEXT
  5
35D
330
9C
100
AcDbEntity
  8
1
 62
     2
100
AcDbMText
 10
92.28586000000348
 20
-51.57552913273889
 30
0.0
 40
1.8
 41
0.0
 71
     1
 72
     1
  1
surface in um
  7
CONVERTER_11
 73
     1
 44
1.32052821128451
  0
MTEXT
  5
35E
330
9C
100
AcDbEntity
  8
1
 62
     2
100
AcDbMText
 10
-112.6141399999993
 20
-39.95052913273889
 30
0.0
 40
2.0
 41
0.0
 71
     5
 72
     1
  1
 
  7
CONVERTER_11
 73
     1
 44
1.20048019207683
  0
MTEXT
  5
35F
330
9C
100
AcDbEntity
  8
1
 62
     2
100
AcDbMText
 10
-112.6141399999993
 20
-44.20052913273889
 30
0.0
 40
2.0
 41
0.0
 71
     5
 72
     1
  1
 
  7
CONVERTER_11
 73
     1
 44
1.20048019207683
  0
MTEXT
  5
360
330
9C
100
AcDbEntity
  8
1
 62
     2
100
AcDbMText
 10
-112.6141399999993
 20
-48.45052913273889
 30
0.0
 40
2.0
 41
0.0
 71
     5
 72
     1
  1
 
  7
CONVERTER_11
 73
     1
 44
1.20048019207683
  0
MTEXT
  5
361
330
9C
100
AcDbEntity
  8
1
 62
     2
100
AcDbMText
 10
-112.6141399999993
 20
-52.70052913273889
 30
0.0
 40
2.0
 41
0.0
 71
     5
 72
     1
  1
 
  7
CONVERTER_11
 73
     1
 44
1.20048019207683
  0
MTEXT
  5
362
330
9C
100
AcDbEntity
  8
1
 62
     2
100
AcDbMText
 10
-112.6141399999993
 20
-56.95052913273889
 30
0.0
 40
2.0
 41
0.0
 71
     5
 72
     1
  1
 
  7
CONVERTER_11
 73
     1
 44
1.20048019207683
  0
MTEXT
  5
363
330
9C
100
AcDbEntity
  8
1
 62
     2
100
AcDbMText
 10
-112.6141399999993
 20
-61.20052913273878
 30
0.0
 40
2.0
 41
0.0
 71
     5
 72
     1
  1
 
  7
CONVERTER_11
 73
     1
 44
1.20048019207683
  0
MTEXT
  5
364
330
9C
100
AcDbEntity
  8
1
 62
     2
100
AcDbMText
 10
-102.7641400000003
 20
-61.20052913273878
 30
0.0
 40
2.0
 41
0.0
 71
     5
 72
     1
  1
 
  7
CONVERTER_11
 73
     1
 44
1.20048019207683
  0
MTEXT
  5
365
330
9C
100
AcDbEntity
  8
1
 62
     2
100
AcDbMText
 10
-102.7641400000003
 20
-56.95052913273889
 30
0.0
 40
2.0
 41
0.0
 71
     5
 72
     1
  1
 
  7
CONVERTER_11
 73
     1
 44
1.20048019207683
  0
MTEXT
  5
366
330
9C
100
AcDbEntity
  8
1
 62
     2
100
AcDbMText
 10
-102.7641400000003
 20
-52.70052913273889
 30
0.0
 40
2.0
 41
0.0
 71
     5
 72
     1
  1
 
  7
CONVERTER_11
 73
     1
 44
1.20048019207683
  0
MTEXT
  5
367
330
9C
100
AcDbEntity
  8
1
 62
     2
100
AcDbMText
 10
-102.7641400000003
 20
-48.45052913273889
 30
0.0
 40
2.0
 41
0.0
 71
     5
 72
     1
  1
 
  7
CONVERTER_11
 73
     1
 44
1.20048019207683
  0
MTEXT
  5
368
330
9C
100
AcDbEntity
  8
1
 62
     2
100
AcDbMText
 10
-102.7641400000003
 20
-44.20052913273889
 30
0.0
 40
2.0
 41
0.0
 71
     5
 72
     1
  1
 
  7
CONVERTER_11
 73
     1
 44
1.20048019207683
  0
MTEXT
  5
369
330
9C
100
AcDbEntity
  8
1
 62
     2
100
AcDbMText
 10
-102.7641400000003
 20
-39.95052913273889
 30
0.0
 40
2.0
 41
0.0
 71
     5
 72
     1
  1
 
  7
CONVERTER_11
 73
     1
 44
1.20048019207683
  0
MTEXT
  5
36A
330
9C
100
AcDbEntity
  8
1
 62
     2
100
AcDbMText
 10
-27.00894452675013
 20
-61.20052913273878
 30
0.0
 40
2.0
 41
0.0
 71
     5
 72
     1
  1
 
  7
CONVERTER_11
 73
     1
 44
1.20048019207683
  0
MTEXT
  5
36B
330
9C
100
AcDbEntity
  8
1
 62
     2
100
AcDbMText
 10
-27.00894452675013
 20
-56.95052913273889
 30
0.0
 40
2.0
 41
0.0
 71
     5
 72
     1
  1
 
  7
CONVERTER_11
 73
     1
 44
1.20048019207683
  0
MTEXT
  5
36C
330
9C
100
AcDbEntity
  8
1
 62
     2
100
AcDbMText
 10
-27.00894452675013
 20
-52.70052913273889
 30
0.0
 40
2.0
 41
0.0
 71
     5
 72
     1
  1
 
  7
CONVERTER_11
 73
     1
 44
1.20048019207683
  0
MTEXT
  5
36D
330
9C
100
AcDbEntity
  8
1
 62
     2
100
AcDbMText
 10
-27.00894452675013
 20
-48.45052913273889
 30
0.0
 40
2.0
 41
0.0
 71
     5
 72
     1
  1
 
  7
CONVERTER_11
 73
     1
 44
1.20048019207683
  0
MTEXT
  5
36E
330
9C
100
AcDbEntity
  8
1
 62
     2
100
AcDbMText
 10
-27.00894452675013
 20
-44.20052913273889
 30
0.0
 40
2.0
 41
0.0
 71
     5
 72
     1
  1
 
  7
CONVERTER_11
 73
     1
 44
1.20048019207683
  0
MTEXT
  5
36F
330
9C
100
AcDbEntity
  8
1
 62
     2
100
AcDbMText
 10
-27.00894452675013
 20
-39.95052913273889
 30
0.0
 40
2.0
 41
0.0
 71
     5
 72
     1
  1
 
  7
CONVERTER_11
 73
     1
 44
1.20048019207683
  0
MTEXT
  5
370
330
9C
100
AcDbEntity
  8
1
 62
     2
100
AcDbMText
 10
-13.50894452675013
 20
-39.95052913273889
 30
0.0
 40
2.0
 41
0.0
 71
     5
 72
     1
  1
 
  7
CONVERTER_11
 73
     1
 44
1.20048019207683
  0
MTEXT
  5
371
330
9C
100
AcDbEntity
  8
1
 62
     2
100
AcDbMText
 10
-13.50894452675013
 20
-44.20052913273889
 30
0.0
 40
2.0
 41
0.0
 71
     5
 72
     1
  1
 
  7
CONVERTER_11
 73
     1
 44
1.20048019207683
  0
MTEXT
  5
372
330
9C
100
AcDbEntity
  8
1
 62
     2
100
AcDbMText
 10
-13.50894452675013
 20
-48.45052913273889
 30
0.0
 40
2.0
 41
0.0
 71
     5
 72
     1
  1
 
  7
CONVERTER_11
 73
     1
 44
1.20048019207683
  0
MTEXT
  5
373
330
9C
100
AcDbEntity
  8
1
 62
     2
100
AcDbMText
 10
-13.50894452675013
 20
-52.70052913273889
 30
0.0
 40
2.0
 41
0.0
 71
     5
 72
     1
  1
 
  7
CONVERTER_11
 73
     1
 44
1.20048019207683
  0
MTEXT
  5
374
330
9C
100
AcDbEntity
  8
1
 62
     2
100
AcDbMText
 10
-13.50894452675013
 20
-56.95052913273889
 30
0.0
 40
2.0
 41
0.0
 71
     5
 72
     1
  1
 
  7
CONVERTER_11
 73
     1
 44
1.20048019207683
  0
MTEXT
  5
375
330
9C
100
AcDbEntity
  8
1
 62
     2
100
AcDbMText
 10
-13.50894452675021
 20
-61.20052913273878
 30
0.0
 40
2.0
 41
0.0
 71
     5
 72
     1
  1
 
  7
CONVERTER_11
 73
     1
 44
1.20048019207683
  0
MTEXT
  5
376
330
9C
100
AcDbEntity
  8
1
 62
     2
100
AcDbMText
 10
-0.00894452675021
 20
-39.95052913273889
 30
0.0
 40
2.0
 41
0.0
 71
     5
 72
     1
  1
 
  7
CONVERTER_11
 73
     1
 44
1.20048019207683
  0
MTEXT
  5
377
330
9C
100
AcDbEntity
  8
1
 62
     2
100
AcDbMText
 10
-0.00894452675021
 20
-44.20052913273889
 30
0.0
 40
2.0
 41
0.0
 71
     5
 72
     1
  1
 
  7
CONVERTER_11
 73
     1
 44
1.20048019207683
  0
MTEXT
  5
378
330
9C
100
AcDbEntity
  8
1
 62
     2
100
AcDbMText
 10
-0.00894452675021
 20
-48.45052913273889
 30
0.0
 40
2.0
 41
0.0
 71
     5
 72
     1
  1
 
  7
CONVERTER_11
 73
     1
 44
1.20048019207683
  0
MTEXT
  5
379
330
9C
100
AcDbEntity
  8
1
 62
     2
100
AcDbMText
 10
-0.00894452675021
 20
-52.70052913273889
 30
0.0
 40
2.0
 41
0.0
 71
     5
 72
     1
  1
 
  7
CONVERTER_11
 73
     1
 44
1.20048019207683
  0
MTEXT
  5
37A
330
9C
100
AcDbEntity
  8
1
 62
     2
100
AcDbMText
 10
-0.00894452675021
 20
-56.95052913273889
 30
0.0
 40
2.0
 41
0.0
 71
     5
 72
     1
  1
 
  7
CONVERTER_11
 73
     1
 44
1.20048019207683
  0
MTEXT
  5
37B
330
9C
100
AcDbEntity
  8
1
 62
     2
100
AcDbMText
 10
-0.00894452675021
 20
-61.20052913273878
 30
0.0
 40
2.0
 41
0.0
 71
     5
 72
     1
  1
 
  7
CONVERTER_11
 73
     1
 44
1.20048019207683
  0
MTEXT
  5
37D
330
9C
100
AcDbEntity
  8
1
 62
     2
100
AcDbMText
 10
-95.01414000000034
 20
-39.95052913273889
 30
0.0
 40
2.0
 41
0.0
 71
     4
 72
     1
  1
 
  7
CONVERTER_18
 73
     1
 44
1.20048019207683
  0
MTEXT
  5
37E
330
9C
100
AcDbEntity
  8
1
 62
     2
100
AcDbMText
 10
-95.01414000000034
 20
-44.20052913273889
 30
0.0
 40
2.0
 41
0.0
 71
     4
 72
     1
  1
 
  7
CONVERTER_18
 73
     1
 44
1.20048019207683
  0
MTEXT
  5
37F
330
9C
100
AcDbEntity
  8
1
 62
     2
100
AcDbMText
 10
-95.01414000000034
 20
-48.45052913273889
 30
0.0
 40
2.0
 41
0.0
 71
     4
 72
     1
  1
 
  7
CONVERTER_18
 73
     1
 44
1.20048019207683
  0
MTEXT
  5
380
330
9C
100
AcDbEntity
  8
1
 62
     2
100
AcDbMText
 10
-95.01414000000034
 20
-52.70052913273889
 30
0.0
 40
2.0
 41
0.0
 71
     4
 72
     1
  1
 
  7
CONVERTER_18
 73
     1
 44
1.20048019207683
  0
MTEXT
  5
381
330
9C
100
AcDbEntity
  8
1
 62
     2
100
AcDbMText
 10
-95.01414000000034
 20
-56.95052913273889
 30
0.0
 40
2.0
 41
0.0
 71
     4
 72
     1
  1
 
  7
CONVERTER_18
 73
     1
 44
1.20048019207683
  0
MTEXT
  5
382
330
9C
100
AcDbEntity
  8
1
 62
     2
100
AcDbMText
 10
-95.01414000000034
 20
-61.20052913273878
 30
0.0
 40
2.0
 41
0.0
 71
     4
 72
     1
  1
 
  7
CONVERTER_18
 73
     1
 44
1.20048019207683
  0
HATCH
  5
383
330
9C
100
AcDbEntity
  8
1
  6
Continuous
 62
     2
100
AcDbHatch
 10
0.0
 20
0.0
 30
0.0
210
0.0
220
0.0
230
1.0
  2
_USER
 70
     0
 71
     1
 91
        1
 92
        1
 93
       12
 72
     1
 10
24.50097341784587
 20
-58.94933865655582
 11
23.51519432514627
 21
-58.94933865655582
 72
     1
 10
23.51519432514627
 20
-58.94933865655582
 11
23.51519432514627
 21
-58.01192369056923
 72
     1
 10
23.51519432514627
 20
-58.01192369056923
 11
22.64770872356988
 21
-58.01192369056923
 72
     1
 10
22.64770872356988
 20
-58.01192369056923
 11
22.64770872356988
 21
-58.94933865655582
 72
     1
 10
22.64770872356988
 20
-58.94933865655582
 11
21.66192963087028
 21
-58.94933865655582
 72
     1
 10
21.66192963087028
 20
-58.94933865655582
 11
21.66192963087028
 21
-56.42552913274494
 72
     1
 10
21.66192963087028
 20
-56.42552913274494
 11
22.64770872356988
 21
-56.42552913274494
 72
     1
 10
22.64770872356988
 20
-56.42552913274494
 11
22.64770872356988
 21
-57.30886246607929
 72
     1
 10
22.64770872356988
 20
-57.30886246607929
 11
23.51519432514627
 21
-57.30886246607929
 72
     1
 10
23.51519432514627
 20
-57.30886246607929
 11
23.51519432514627
 21
-56.42552913274494
 72
     1
 10
23.51519432514627
 20
-56.42552913274494
 11
24.50097341784587
 21
-56.42552913274494
 72
     1
 10
24.50097341784587
 20
-56.42552913274494
 11
24.50097341784587
 21
-58.94933865655582
 97
       12
330
2B7
330
2B8
330
2A2
330
2A1
330
2A0
330
2B4
330
29F
330
2B5
330
2B6
330
29E
330
29D
330
29C
 75
     1
 76
     0
 52
45.0
 41
0.1
 77
     0
 78
     1
 53
45.0
 43
0.0
 44
0.0
 45
-0.0707106781186548
 46
0.0707106781186548
 79
     0
 98
        1
 10
0.0
 20
0.0
  0
HATCH
  5
384
330
9C
100
AcDbEntity
  8
1
  6
Continuous
 62
     2
100
AcDbHatch
 10
0.0
 20
0.0
 30
0.0
210
0.0
220
0.0
230
1.0
  2
_USER
 70
     0
 71
     1
 91
        1
 92
        1
 93
       12
 72
     1
 10
24.50097341784587
 20
-58.94933865655582
 11
23.51519432514627
 21
-58.94933865655582
 72
     1
 10
23.51519432514627
 20
-58.94933865655582
 11
23.51519432514627
 21
-58.01192369056923
 72
     1
 10
23.51519432514627
 20
-58.01192369056923
 11
22.64770872356988
 21
-58.01192369056923
 72
     1
 10
22.64770872356988
 20
-58.01192369056923
 11
22.64770872356988
 21
-58.94933865655582
 72
     1
 10
22.64770872356988
 20
-58.94933865655582
 11
21.66192963087028
 21
-58.94933865655582
 72
     1
 10
21.66192963087028
 20
-58.94933865655582
 11
21.66192963087028
 21
-56.42552913274494
 72
     1
 10
21.66192963087028
 20
-56.42552913274494
 11
22.64770872356988
 21
-56.42552913274494
 72
     1
 10
22.64770872356988
 20
-56.42552913274494
 11
22.64770872356988
 21
-57.30886246607929
 72
     1
 10
22.64770872356988
 20
-57.30886246607929
 11
23.51519432514627
 21
-57.30886246607929
 72
     1
 10
23.51519432514627
 20
-57.30886246607929
 11
23.51519432514627
 21
-56.42552913274494
 72
     1
 10
23.51519432514627
 20
-56.42552913274494
 11
24.50097341784587
 21
-56.42552913274494
 72
     1
 10
24.50097341784587
 20
-56.42552913274494
 11
24.50097341784587
 21
-58.94933865655582
 97
       12
330
2B7
330
2B8
330
2A2
330
2A1
330
2A0
330
2B4
330
29F
330
2B5
330
2B6
330
29E
330
29D
330
29C
 75
     1
 76
     0
 52
45.0
 41
0.1
 77
     0
 78
     1
 53
45.0
 43
0.0
 44
0.0
 45
-0.0707106781186548
 46
0.0707106781186548
 79
     0
 98
        1
 10
0.0
 20
0.0
  0
HATCH
  5
385
330
9C
100
AcDbEntity
  8
1
  6
Continuous
 62
     2
100
AcDbHatch
 10
0.0
 20
0.0
 30
0.0
210
0.0
220
0.0
230
1.0
  2
_USER
 70
     0
 71
     1
 91
        1
 92
        1
 93
       10
 72
     1
 10
26.35411337585268
 20
-60.28335226198419
 11
25.32890311944539
 21
-59.20171960892208
 72
     1
 10
25.32890311944539
 20
-59.20171960892208
 11
24.34312402674487
 21
-59.20171960892208
 72
     1
 10
24.34312402674487
 20
-59.20171960892208
 11
24.34312402674487
 21
-61.72552913273296
 72
     1
 10
24.34312402674487
 20
-61.72552913273296
 11
25.32890311944539
 21
-61.72552913273296
 72
     1
 10
25.32890311944539
 20
-61.72552913273296
 11
25.32890311944539
 21
-60.6438964796713
 72
     1
 10
25.32890311944539
 20
-60.6438964796713
 11
26.35411337585268
 21
-61.72552913273296
 72
     1
 10
26.35411337585268
 20
-61.72552913273296
 11
27.33989246855228
 21
-61.72552913273296
 72
     1
 10
27.33989246855228
 20
-61.72552913273296
 11
27.33989246855228
 21
-59.20171960892208
 72
     1
 10
27.33989246855228
 20
-59.20171960892208
 11
26.35411337585268
 21
-59.20171960892208
 72
     1
 10
26.35411337585268
 20
-59.20171960892208
 11
26.35411337585268
 21
-60.28335226198419
 97
       10
330
2C5
330
295
330
294
330
297
330
2C0
330
2C1
330
296
330
2C2
330
2C3
330
2C4
 75
     1
 76
     0
 52
45.0
 41
0.1
 77
     0
 78
     1
 53
45.0
 43
0.0
 44
0.0
 45
-0.0707106781186548
 46
0.0707106781186548
 79
     0
 98
        1
 10
0.0
 20
0.0
  0
HATCH
  5
386
330
9C
100
AcDbEntity
  8
1
  6
Continuous
 62
     2
100
AcDbHatch
 10
0.0
 20
0.0
 30
0.0
210
0.0
220
0.0
230
1.0
  2
_USER
 70
     0
 71
     1
 91
        1
 92
        1
 93
       10
 72
     1
 10
26.35411337585268
 20
-60.28335226198419
 11
25.32890311944539
 21
-59.20171960892208
 72
     1
 10
25.32890311944539
 20
-59.20171960892208
 11
24.34312402674487
 21
-59.20171960892208
 72
     1
 10
24.34312402674487
 20
-59.20171960892208
 11
24.34312402674487
 21
-61.72552913273296
 72
     1
 10
24.34312402674487
 20
-61.72552913273296
 11
25.32890311944539
 21
-61.72552913273296
 72
     1
 10
25.32890311944539
 20
-61.72552913273296
 11
25.32890311944539
 21
-60.6438964796713
 72
     1
 10
25.32890311944539
 20
-60.6438964796713
 11
26.35411337585268
 21
-61.72552913273296
 72
     1
 10
26.35411337585268
 20
-61.72552913273296
 11
27.33989246855228
 21
-61.72552913273296
 72
     1
 10
27.33989246855228
 20
-61.72552913273296
 11
27.33989246855228
 21
-59.20171960892208
 72
     1
 10
27.33989246855228
 20
-59.20171960892208
 11
26.35411337585268
 21
-59.20171960892208
 72
     1
 10
26.35411337585268
 20
-59.20171960892208
 11
26.35411337585268
 21
-60.28335226198419
 97
       10
330
2C5
330
295
330
294
330
297
330
2C0
330
2C1
330
296
330
2C2
330
2C3
330
2C4
 75
     1
 76
     0
 52
45.0
 41
0.1
 77
     0
 78
     1
 53
45.0
 43
0.0
 44
0.0
 45
-0.0707106781186548
 46
0.0707106781186548
 79
     0
 98
        1
 10
0.0
 20
0.0
  0
HATCH
  5
387
330
9C
100
AcDbEntity
  8
1
  6
Continuous
 62
     2
100
AcDbHatch
 10
0.0
 20
0.0
 30
0.0
210
0.0
220
0.0
230
1.0
  2
_USER
 70
     0
 71
     1
 91
        1
 92
        1
 93
       10
 72
     1
 10
30.69166612000129
 20
-57.50716178580706
 11
29.66645586359297
 21
-56.42552913274494
 72
     1
 10
29.66645586359297
 20
-56.42552913274494
 11
28.68067677089337
 21
-56.42552913274494
 72
     1
 10
28.68067677089337
 20
-56.42552913274494
 11
28.68067677089337
 21
-58.94933865655582
 72
     1
 10
28.68067677089337
 20
-58.94933865655582
 11
29.66645586359297
 21
-58.94933865655582
 72
     1
 10
29.66645586359297
 20
-58.94933865655582
 11
29.66645586359297
 21
-57.86770600349416
 72
     1
 10
29.66645586359297
 20
-57.86770600349416
 11
30.69166612000129
 21
-58.94933865655582
 72
     1
 10
30.69166612000129
 20
-58.94933865655582
 11
31.67744521270086
 21
-58.94933865655582
 72
     1
 10
31.67744521270086
 20
-58.94933865655582
 11
31.67744521270086
 21
-56.42552913274494
 72
     1
 10
31.67744521270086
 20
-56.42552913274494
 11
30.69166612000129
 21
-56.42552913274494
 72
     1
 10
30.69166612000129
 20
-56.42552913274494
 11
30.69166612000129
 21
-57.50716178580706
 97
       10
330
2CA
330
292
330
291
330
2CB
330
290
330
2C6
330
2C7
330
2C8
330
2C9
330
293
 75
     1
 76
     0
 52
45.0
 41
0.1
 77
     0
 78
     1
 53
45.0
 43
0.0
 44
0.0
 45
-0.0707106781186548
 46
0.0707106781186548
 79
     0
 98
        1
 10
0.0
 20
0.0
  0
HATCH
  5
388
330
9C
100
AcDbEntity
  8
1
  6
Continuous
 62
     2
100
AcDbHatch
 10
0.0
 20
0.0
 30
0.0
210
0.0
220
0.0
230
1.0
  2
_USER
 70
     0
 71
     1
 91
        1
 92
        1
 93
       10
 72
     1
 10
30.69166612000129
 20
-57.50716178580706
 11
29.66645586359297
 21
-56.42552913274494
 72
     1
 10
29.66645586359297
 20
-56.42552913274494
 11
28.68067677089337
 21
-56.42552913274494
 72
     1
 10
28.68067677089337
 20
-56.42552913274494
 11
28.68067677089337
 21
-58.94933865655582
 72
     1
 10
28.68067677089337
 20
-58.94933865655582
 11
29.66645586359297
 21
-58.94933865655582
 72
     1
 10
29.66645586359297
 20
-58.94933865655582
 11
29.66645586359297
 21
-57.86770600349416
 72
     1
 10
29.66645586359297
 20
-57.86770600349416
 11
30.69166612000129
 21
-58.94933865655582
 72
     1
 10
30.69166612000129
 20
-58.94933865655582
 11
31.67744521270086
 21
-58.94933865655582
 72
     1
 10
31.67744521270086
 20
-58.94933865655582
 11
31.67744521270086
 21
-56.42552913274494
 72
     1
 10
31.67744521270086
 20
-56.42552913274494
 11
30.69166612000129
 21
-56.42552913274494
 72
     1
 10
30.69166612000129
 20
-56.42552913274494
 11
30.69166612000129
 21
-57.50716178580706
 97
       10
330
2CA
330
292
330
291
330
2CB
330
290
330
2C6
330
2C7
330
2C8
330
2C9
330
293
 75
     1
 76
     0
 52
45.0
 41
0.1
 77
     0
 78
     1
 53
45.0
 43
0.0
 44
0.0
 45
-0.0707106781186548
 46
0.0707106781186548
 79
     0
 98
        1
 10
0.0
 20
0.0
  0
HATCH
  5
389
330
9C
100
AcDbEntity
  8
1
  6
Continuous
 62
     2
100
AcDbHatch
 10
0.0
 20
0.0
 30
0.0
210
0.0
220
0.0
230
1.0
  2
_USER
 70
     0
 71
     1
 91
        1
 92
        1
 93
        8
 72
     1
 10
29.78462461844796
 20
-59.20171960892208
 11
27.45818595967629
 21
-59.20171960892208
 72
     1
 10
27.45818595967629
 20
-59.20171960892208
 11
27.45818595967629
 21
-59.85069920075978
 72
     1
 10
27.45818595967629
 20
-59.85069920075978
 11
28.12851574271318
 21
-59.85069920075978
 72
     1
 10
28.12851574271318
 20
-59.85069920075978
 11
28.12851574271318
 21
-61.72552913273296
 72
     1
 10
28.12851574271318
 20
-61.72552913273296
 11
29.11429483541278
 21
-61.72552913273296
 72
     1
 10
29.11429483541278
 20
-61.72552913273296
 11
29.11429483541278
 21
-59.85069920075978
 72
     1
 10
29.11429483541278
 20
-59.85069920075978
 11
29.78462461844796
 21
-59.85069920075978
 72
     1
 10
29.78462461844796
 20
-59.85069920075978
 11
29.78462461844796
 21
-59.20171960892208
 97
        8
330
28C
330
2CC
330
28B
330
2CD
330
2CE
330
28F
330
28E
330
28D
 75
     1
 76
     0
 52
45.0
 41
0.1
 77
     0
 78
     1
 53
45.0
 43
0.0
 44
0.0
 45
-0.0707106781186548
 46
0.0707106781186548
 79
     0
 98
        1
 10
0.0
 20
0.0
  0
HATCH
  5
38A
330
9C
100
AcDbEntity
  8
1
  6
Continuous
 62
     2
100
AcDbHatch
 10
0.0
 20
0.0
 30
0.0
210
0.0
220
0.0
230
1.0
  2
_USER
 70
     0
 71
     1
 91
        1
 92
        1
 93
        8
 72
     1
 10
29.78462461844796
 20
-59.20171960892208
 11
27.45818595967629
 21
-59.20171960892208
 72
     1
 10
27.45818595967629
 20
-59.20171960892208
 11
27.45818595967629
 21
-59.85069920075978
 72
     1
 10
27.45818595967629
 20
-59.85069920075978
 11
28.12851574271318
 21
-59.85069920075978
 72
     1
 10
28.12851574271318
 20
-59.85069920075978
 11
28.12851574271318
 21
-61.72552913273296
 72
     1
 10
28.12851574271318
 20
-61.72552913273296
 11
29.11429483541278
 21
-61.72552913273296
 72
     1
 10
29.11429483541278
 20
-61.72552913273296
 11
29.11429483541278
 21
-59.85069920075978
 72
     1
 10
29.11429483541278
 20
-59.85069920075978
 11
29.78462461844796
 21
-59.85069920075978
 72
     1
 10
29.78462461844796
 20
-59.85069920075978
 11
29.78462461844796
 21
-59.20171960892208
 97
        8
330
28C
330
2CC
330
28B
330
2CD
330
2CE
330
28F
330
28E
330
28D
 75
     1
 76
     0
 52
45.0
 41
0.1
 77
     0
 78
     1
 53
45.0
 43
0.0
 44
0.0
 45
-0.0707106781186548
 46
0.0707106781186548
 79
     0
 98
        1
 10
0.0
 20
0.0
  0
HATCH
  5
38B
330
9C
100
AcDbEntity
  8
1
  6
Continuous
 62
     2
100
AcDbHatch
 10
0.0
 20
0.0
 30
0.0
210
0.0
220
0.0
230
1.0
  2
_USER
 70
     0
 71
     1
 91
        2
 92
        1
 93
        8
 72
     1
 10
31.55192003658598
 20
-61.72552913273296
 11
31.37714313288697
 21
-61.27845430280081
 72
     1
 10
31.37714313288697
 20
-61.27845430280081
 11
30.44124100340437
 21
-61.27845430280081
 72
     1
 10
30.44124100340437
 20
-61.27845430280081
 11
30.26646409970539
 21
-61.72552913273296
 72
     1
 10
30.26646409970539
 20
-61.72552913273296
 11
29.24125384329798
 21
-61.72552913273296
 72
     1
 10
29.24125384329798
 20
-61.72552913273296
 11
30.39658693994198
 21
-59.20171960892208
 72
     1
 10
30.39658693994198
 20
-59.20171960892208
 11
31.42179719634927
 21
-59.20171960892208
 72
     1
 10
31.42179719634927
 20
-59.20171960892208
 11
32.57713029299418
 21
-61.72552913273296
 72
     1
 10
32.57713029299418
 20
-61.72552913273296
 11
31.55192003658598
 21
-61.72552913273296
 97
        8
330
2D0
330
2D1
330
288
330
2D2
330
287
330
28A
330
2CF
330
289
 92
       16
 93
        3
 72
     1
 10
30.66112162418548
 20
-60.71600532320861
 11
30.90919206814607
 21
-60.08144750007909
 72
     1
 10
30.90919206814607
 20
-60.08144750007909
 11
31.15726251210487
 21
-60.71600532320861
 72
     1
 10
31.15726251210487
 20
-60.71600532320861
 11
30.66112162418548
 21
-60.71600532320861
 97
        3
330
286
330
2D4
330
2D3
 75
     1
 76
     0
 52
45.0
 41
0.1
 77
     0
 78
     1
 53
45.0
 43
0.0
 44
0.0
 45
-0.0707106781186548
 46
0.0707106781186548
 79
     0
 98
        1
 10
0.0
 20
0.0
  0
HATCH
  5
38C
330
9C
100
AcDbEntity
  8
1
  6
Continuous
 62
     2
100
AcDbHatch
 10
0.0
 20
0.0
 30
0.0
210
0.0
220
0.0
230
1.0
  2
_USER
 70
     0
 71
     1
 91
        2
 92
        1
 93
        8
 72
     1
 10
31.55192003658598
 20
-61.72552913273296
 11
31.37714313288697
 21
-61.27845430280081
 72
     1
 10
31.37714313288697
 20
-61.27845430280081
 11
30.44124100340437
 21
-61.27845430280081
 72
     1
 10
30.44124100340437
 20
-61.27845430280081
 11
30.26646409970539
 21
-61.72552913273296
 72
     1
 10
30.26646409970539
 20
-61.72552913273296
 11
29.24125384329798
 21
-61.72552913273296
 72
     1
 10
29.24125384329798
 20
-61.72552913273296
 11
30.39658693994198
 21
-59.20171960892208
 72
     1
 10
30.39658693994198
 20
-59.20171960892208
 11
31.42179719634927
 21
-59.20171960892208
 72
     1
 10
31.42179719634927
 20
-59.20171960892208
 11
32.57713029299418
 21
-61.72552913273296
 72
     1
 10
32.57713029299418
 20
-61.72552913273296
 11
31.55192003658598
 21
-61.72552913273296
 97
        8
330
2D0
330
2D1
330
288
330
2D2
330
287
330
28A
330
2CF
330
289
 92
       16
 93
        3
 72
     1
 10
30.66112162418548
 20
-60.71600532320861
 11
30.90919206814607
 21
-60.08144750007909
 72
     1
 10
30.90919206814607
 20
-60.08144750007909
 11
31.15726251210487
 21
-60.71600532320861
 72
     1
 10
31.15726251210487
 20
-60.71600532320861
 11
30.66112162418548
 21
-60.71600532320861
 97
        3
330
286
330
2D4
330
2D3
 75
     1
 76
     0
 52
45.0
 41
0.1
 77
     0
 78
     1
 53
45.0
 43
0.0
 44
0.0
 45
-0.0707106781186548
 46
0.0707106781186548
 79
     0
 98
        1
 10
0.0
 20
0.0
  0
HATCH
  5
38D
330
9C
100
AcDbEntity
  8
1
  6
Continuous
 62
     2
100
AcDbHatch
 10
0.0
 20
0.0
 30
0.0
210
0.0
220
0.0
230
1.0
  2
_USER
 70
     0
 71
     1
 91
        1
 92
        1
 93
        4
 72
     1
 10
32.89981128764867
 20
-58.94933865655582
 11
31.87460103124127
 21
-58.94933865655582
 72
     1
 10
31.87460103124127
 20
-58.94933865655582
 11
31.87460103124127
 21
-56.42552913274494
 72
     1
 10
31.87460103124127
 20
-56.42552913274494
 11
32.89981128764867
 21
-56.42552913274494
 72
     1
 10
32.89981128764867
 20
-56.42552913274494
 11
32.89981128764867
 21
-58.94933865655582
 97
        4
330
283
330
285
330
2D5
330
284
 75
     1
 76
     0
 52
45.0
 41
0.1
 77
     0
 78
     1
 53
45.0
 43
0.0
 44
0.0
 45
-0.0707106781186548
 46
0.0707106781186548
 79
     0
 98
        1
 10
0.0
 20
0.0
  0
HATCH
  5
38E
330
9C
100
AcDbEntity
  8
1
  6
Continuous
 62
     2
100
AcDbHatch
 10
0.0
 20
0.0
 30
0.0
210
0.0
220
0.0
230
1.0
  2
_USER
 70
     0
 71
     1
 91
        1
 92
        1
 93
        4
 72
     1
 10
32.89981128764867
 20
-58.94933865655582
 11
31.87460103124127
 21
-58.94933865655582
 72
     1
 10
31.87460103124127
 20
-58.94933865655582
 11
31.87460103124127
 21
-56.42552913274494
 72
     1
 10
31.87460103124127
 20
-56.42552913274494
 11
32.89981128764867
 21
-56.42552913274494
 72
     1
 10
32.89981128764867
 20
-56.42552913274494
 11
32.89981128764867
 21
-58.94933865655582
 97
        4
330
283
330
285
330
2D5
330
284
 75
     1
 76
     0
 52
45.0
 41
0.1
 77
     0
 78
     1
 53
45.0
 43
0.0
 44
0.0
 45
-0.0707106781186548
 46
0.0707106781186548
 79
     0
 98
        1
 10
0.0
 20
0.0
  0
HATCH
  5
38F
330
9C
100
AcDbEntity
  8
1
  6
Continuous
 62
     2
100
AcDbHatch
 10
0.0
 20
0.0
 30
0.0
210
0.0
220
0.0
230
1.0
  2
_USER
 70
     0
 71
     1
 91
        1
 92
        1
 93
       12
 72
     1
 10
36.38946927580636
 20
-56.42552913274494
 11
35.31299850657777
 21
-57.64284362037813
 72
     1
 10
35.31299850657777
 20
-57.64284362037813
 11
36.46833160322268
 21
-58.94933865655582
 72
     1
 10
36.46833160322268
 20
-58.94933865655582
 11
35.30905539020756
 21
-58.94933865655582
 72
     1
 10
35.30905539020756
 20
-58.94933865655582
 11
34.73336040007078
 21
-58.29832065218079
 72
     1
 10
34.73336040007078
 20
-58.29832065218079
 11
34.15766540993388
 21
-58.94933865655582
 72
     1
 10
34.15766540993388
 20
-58.94933865655582
 11
32.99838919691888
 21
-58.94933865655582
 72
     1
 10
32.99838919691888
 20
-58.94933865655582
 11
34.15372229356368
 21
-57.64284362037813
 72
     1
 10
34.15372229356368
 20
-57.64284362037813
 11
33.07725152433437
 21
-56.42552913274494
 72
     1
 10
33.07725152433437
 20
-56.42552913274494
 11
34.23652773735029
 21
-56.42552913274494
 72
     1
 10
34.23652773735029
 20
-56.42552913274494
 11
34.73336040007078
 21
-56.98736658857592
 72
     1
 10
34.73336040007078
 20
-56.98736658857592
 11
35.23019306279218
 21
-56.42552913274494
 72
     1
 10
35.23019306279218
 20
-56.42552913274494
 11
36.38946927580636
 21
-56.42552913274494
 97
       12
330
27E
330
27D
330
27C
330
2D9
330
2DA
330
2D6
330
2D7
330
282
330
281
330
280
330
27F
330
2D8
 75
     1
 76
     0
 52
45.0
 41
0.1
 77
     0
 78
     1
 53
45.0
 43
0.0
 44
0.0
 45
-0.0707106781186548
 46
0.0707106781186548
 79
     0
 98
        1
 10
0.0
 20
0.0
  0
HATCH
  5
390
330
9C
100
AcDbEntity
  8
1
  6
Continuous
 62
     2
100
AcDbHatch
 10
0.0
 20
0.0
 30
0.0
210
0.0
220
0.0
230
1.0
  2
_USER
 70
     0
 71
     1
 91
        1
 92
        1
 93
       12
 72
     1
 10
36.38946927580636
 20
-56.42552913274494
 11
35.31299850657777
 21
-57.64284362037813
 72
     1
 10
35.31299850657777
 20
-57.64284362037813
 11
36.46833160322268
 21
-58.94933865655582
 72
     1
 10
36.46833160322268
 20
-58.94933865655582
 11
35.30905539020756
 21
-58.94933865655582
 72
     1
 10
35.30905539020756
 20
-58.94933865655582
 11
34.73336040007078
 21
-58.29832065218079
 72
     1
 10
34.73336040007078
 20
-58.29832065218079
 11
34.15766540993388
 21
-58.94933865655582
 72
     1
 10
34.15766540993388
 20
-58.94933865655582
 11
32.99838919691888
 21
-58.94933865655582
 72
     1
 10
32.99838919691888
 20
-58.94933865655582
 11
34.15372229356368
 21
-57.64284362037813
 72
     1
 10
34.15372229356368
 20
-57.64284362037813
 11
33.07725152433437
 21
-56.42552913274494
 72
     1
 10
33.07725152433437
 20
-56.42552913274494
 11
34.23652773735029
 21
-56.42552913274494
 72
     1
 10
34.23652773735029
 20
-56.42552913274494
 11
34.73336040007078
 21
-56.98736658857592
 72
     1
 10
34.73336040007078
 20
-56.98736658857592
 11
35.23019306279218
 21
-56.42552913274494
 72
     1
 10
35.23019306279218
 20
-56.42552913274494
 11
36.38946927580636
 21
-56.42552913274494
 97
       12
330
27E
330
27D
330
27C
330
2D9
330
2DA
330
2D6
330
2D7
330
282
330
281
330
280
330
27F
330
2D8
 75
     1
 76
     0
 52
45.0
 41
0.1
 77
     0
 78
     1
 53
45.0
 43
0.0
 44
0.0
 45
-0.0707106781186548
 46
0.0707106781186548
 79
     0
 98
        1
 10
0.0
 20
0.0
  0
HATCH
  5
391
330
9C
100
AcDbEntity
  8
1
  6
Continuous
 62
     2
100
AcDbHatch
 10
0.0
 20
0.0
 30
0.0
210
0.0
220
0.0
230
1.0
  2
_USER
 70
     0
 71
     1
 91
        2
 92
        1
 93
        6
 72
     1
 10
20.67233256990056
 20
-58.16993515147829
 11
20.04525191884247
 21
-58.16993515147829
 72
     1
 10
20.04525191884247
 20
-58.16993515147829
 11
20.04525191884247
 21
-58.94933865655582
 72
     1
 10
20.04525191884247
 20
-58.94933865655582
 11
19.02004166243418
 21
-58.94933865655582
 72
     1
 10
19.02004166243418
 20
-58.94933865655582
 11
19.02004166243418
 21
-56.42552913274494
 72
     1
 10
19.02004166243418
 20
-56.42552913274494
 11
20.67233256990056
 21
-56.42552913274494
 72
     2
 10
20.67233256990056
 20
-57.29773214211161
 40
0.8722030093666788
 50
270.0
 51
450.0
 73
     0
 97
        6
330
2A6
330
2A5
330
2B2
330
2B1
330
2A7
330
2EC
 92
       16
 93
        4
 72
     2
 10
20.30747924243079
 20
-57.26517348820869
 40
0.2916229955960716
 50
270.0
 51
450.0
 73
     1
 72
     1
 10
20.30747924243079
 20
-56.97355049261273
 11
20.04525191884247
 21
-56.97355049261273
 72
     1
 10
20.04525191884247
 20
-56.97355049261273
 11
20.04525191884247
 21
-57.55679648380476
 72
     1
 10
20.04525191884247
 20
-57.55679648380476
 11
20.30747924243079
 21
-57.55679648380476
 97
        4
330
300
330
2A3
330
2B3
330
2A4
 75
     1
 76
     0
 52
45.0
 41
0.1
 77
     0
 78
     1
 53
45.0
 43
0.0
 44
0.0
 45
-0.0707106781186548
 46
0.0707106781186548
 79
     0
 98
        1
 10
0.0
 20
0.0
  0
HATCH
  5
392
330
9C
100
AcDbEntity
  8
1
  6
Continuous
 62
     2
100
AcDbHatch
 10
0.0
 20
0.0
 30
0.0
210
0.0
220
0.0
230
1.0
  2
_USER
 70
     0
 71
     1
 91
        2
 92
        1
 93
        6
 72
     1
 10
20.67233256990056
 20
-58.16993515147829
 11
20.04525191884247
 21
-58.16993515147829
 72
     1
 10
20.04525191884247
 20
-58.16993515147829
 11
20.04525191884247
 21
-58.94933865655582
 72
     1
 10
20.04525191884247
 20
-58.94933865655582
 11
19.02004166243418
 21
-58.94933865655582
 72
     1
 10
19.02004166243418
 20
-58.94933865655582
 11
19.02004166243418
 21
-56.42552913274494
 72
     1
 10
19.02004166243418
 20
-56.42552913274494
 11
20.67233256990056
 21
-56.42552913274494
 72
     2
 10
20.67233256990056
 20
-57.29773214211161
 40
0.8722030093666788
 50
270.0
 51
450.0
 73
     0
 97
        6
330
2A6
330
2A5
330
2B2
330
2B1
330
2A7
330
2EC
 92
       16
 93
        4
 72
     2
 10
20.30747924243079
 20
-57.26517348820869
 40
0.2916229955960716
 50
270.0
 51
450.0
 73
     1
 72
     1
 10
20.30747924243079
 20
-56.97355049261273
 11
20.04525191884247
 21
-56.97355049261273
 72
     1
 10
20.04525191884247
 20
-56.97355049261273
 11
20.04525191884247
 21
-57.55679648380476
 72
     1
 10
20.04525191884247
 20
-57.55679648380476
 11
20.30747924243079
 21
-57.55679648380476
 97
        4
330
300
330
2A3
330
2B3
330
2A4
 75
     1
 76
     0
 52
45.0
 41
0.1
 77
     0
 78
     1
 53
45.0
 43
0.0
 44
0.0
 45
-0.0707106781186548
 46
0.0707106781186548
 79
     0
 98
        1
 10
0.0
 20
0.0
  0
HATCH
  5
393
330
9C
100
AcDbEntity
  8
1
  6
Continuous
 62
     2
100
AcDbHatch
 10
0.0
 20
0.0
 30
0.0
210
0.0
220
0.0
230
1.0
  2
_USER
 70
     0
 71
     1
 91
        2
 92
        1
 93
        4
 72
     2
 10
22.78517781647838
 20
-60.90872768512759
 40
1.707008076205402
 50
62.45185182430831
 51
117.5481481756682
 73
     1
 72
     2
 10
22.55299608769047
 20
-60.46362437082769
 40
1.20498684599291
 50
117.548148175664
 51
242.4518518243384
 73
     1
 72
     2
 10
22.78517781647838
 20
-60.01852105652745
 40
1.70700807620544
 50
242.4518518243388
 51
297.5481481756847
 73
     1
 72
     2
 10
23.01735954526617
 20
-60.46362437082769
 40
1.204986845993431
 50
297.5481481756999
 51
422.4518518242976
 73
     1
 97
        4
330
2F8
330
2F7
330
2F9
330
2F6
 92
       16
 93
        4
 72
     2
 10
22.62010340627478
 20
-60.46362437082769
 40
0.6378510567600058
 50
321.8795802028323
 51
398.1204197971596
 73
     1
 72
     2
 10
22.78517781647838
 20
-60.33409447155464
 40
0.4280236140605782
 50
38.12041979716361
 51
141.8795802028531
 73
     1
 72
     2
 10
22.95025222668167
 20
-60.46362437082769
 40
0.637851056759849
 50
141.8795802028343
 51
218.1204197971738
 73
     1
 72
     2
 10
22.78517781647838
 20
-60.5931542701004
 40
0.4280236140610139
 50
218.120419797194
 51
321.8795802027893
 73
     1
 97
        4
330
314
330
311
330
312
330
313
 75
     1
 76
     0
 52
45.0
 41
0.1
 77
     0
 78
     1
 53
45.0
 43
0.0
 44
0.0
 45
-0.0707106781186548
 46
0.0707106781186548
 79
     0
 98
        1
 10
0.0
 20
0.0
  0
HATCH
  5
394
330
9C
100
AcDbEntity
  8
1
  6
Continuous
 62
     2
100
AcDbHatch
 10
0.0
 20
0.0
 30
0.0
210
0.0
220
0.0
230
1.0
  2
_USER
 70
     0
 71
     1
 91
        2
 92
        1
 93
        4
 72
     2
 10
22.78517781647838
 20
-60.90872768512759
 40
1.707008076205402
 50
62.45185182430831
 51
117.5481481756682
 73
     1
 72
     2
 10
22.55299608769047
 20
-60.46362437082769
 40
1.20498684599291
 50
117.548148175664
 51
242.4518518243384
 73
     1
 72
     2
 10
22.78517781647838
 20
-60.01852105652745
 40
1.70700807620544
 50
242.4518518243388
 51
297.5481481756847
 73
     1
 72
     2
 10
23.01735954526617
 20
-60.46362437082769
 40
1.204986845993431
 50
297.5481481756999
 51
422.4518518242976
 73
     1
 97
        4
330
2F8
330
2F7
330
2F9
330
2F6
 92
       16
 93
        4
 72
     2
 10
22.62010340627478
 20
-60.46362437082769
 40
0.6378510567600058
 50
321.8795802028323
 51
398.1204197971596
 73
     1
 72
     2
 10
22.78517781647838
 20
-60.33409447155464
 40
0.4280236140605782
 50
38.12041979716361
 51
141.8795802028531
 73
     1
 72
     2
 10
22.95025222668167
 20
-60.46362437082769
 40
0.637851056759849
 50
141.8795802028343
 51
218.1204197971738
 73
     1
 72
     2
 10
22.78517781647838
 20
-60.5931542701004
 40
0.4280236140610139
 50
218.120419797194
 51
321.8795802027893
 73
     1
 97
        4
330
314
330
311
330
312
330
313
 75
     1
 76
     0
 52
45.0
 41
0.1
 77
     0
 78
     1
 53
45.0
 43
0.0
 44
0.0
 45
-0.0707106781186548
 46
0.0707106781186548
 79
     0
 98
        1
 10
0.0
 20
0.0
  0
HATCH
  5
395
330
9C
100
AcDbEntity
  8
1
  6
Continuous
 62
     2
100
AcDbHatch
 10
0.0
 20
0.0
 30
0.0
210
0.0
220
0.0
230
1.0
  2
_USER
 70
     0
 71
     1
 91
        2
 92
        1
 93
       12
 72
     1
 10
28.48352095235379
 20
-57.00239988104488
 11
27.37944836852927
 21
-57.00239988104488
 72
     1
 10
27.37944836852927
 20
-57.00239988104488
 11
27.37944836852927
 21
-57.39899852050087
 72
     1
 10
27.37944836852927
 20
-57.39899852050087
 11
28.48352095235379
 21
-57.39899852050087
 72
     1
 10
28.48352095235379
 20
-57.39899852050087
 11
28.48352095235379
 21
-57.97586926880035
 72
     1
 10
28.48352095235379
 20
-57.97586926880035
 11
27.37944836852927
 21
-57.97586926880035
 72
     1
 10
27.37944836852927
 20
-57.97586926880035
 11
27.37944836852927
 21
-58.37246790825634
 72
     1
 10
27.37944836852927
 20
-58.37246790825634
 11
28.48352095235379
 21
-58.37246790825634
 72
     1
 10
28.48352095235379
 20
-58.37246790825634
 11
28.48352095235379
 21
-58.94933865655582
 72
     1
 10
28.48352095235379
 20
-58.94933865655582
 11
25.87995093270007
 21
-58.94933865655582
 72
     2
 10
25.87995093270007
 20
-57.68743389465055
 40
1.261904761905612
 50
90.0
 51
270.0
 73
     0
 72
     1
 10
25.87995093270007
 20
-56.42552913274494
 11
28.48352095235379
 21
-56.42552913274494
 72
     1
 10
28.48352095235379
 20
-56.42552913274494
 11
28.48352095235379
 21
-57.00239988104488
 97
       12
330
2BA
330
301
330
2BB
330
2BC
330
2BD
330
2BE
330
29B
330
29A
330
299
330
298
330
2BF
330
2B9
 92
       16
 93
        4
 72
     2
 10
26.05868813118369
 20
-57.5579039953775
 40
0.4280236140607291
 50
38.12041979714775
 51
141.8795802028464
 73
     1
 72
     2
 10
26.22376254138717
 20
-57.68743389465055
 40
0.63785105675994
 50
141.8795802028399
 51
218.1204197971682
 73
     1
 72
     2
 10
26.05868813118369
 20
-57.81696379392372
 40
0.4280236140606732
 50
218.1204197971536
 51
321.8795802028523
 73
     1
 72
     2
 10
25.89361372098028
 20
-57.68743389465055
 40
0.6378510567600102
 50
321.8795802028318
 51
398.1204197971601
 73
     1
 97
        4
330
2FB
330
2FA
330
2F5
330
2F4
 75
     1
 76
     0
 52
45.0
 41
0.1
 77
     0
 78
     1
 53
45.0
 43
0.0
 44
0.0
 45
-0.0707106781186548
 46
0.0707106781186548
 79
     0
 98
        1
 10
0.0
 20
0.0
  0
HATCH
  5
396
330
9C
100
AcDbEntity
  8
1
  6
Continuous
 62
     2
100
AcDbHatch
 10
0.0
 20
0.0
 30
0.0
210
0.0
220
0.0
230
1.0
  2
_USER
 70
     0
 71
     1
 91
        2
 92
        1
 93
       12
 72
     1
 10
28.48352095235379
 20
-57.00239988104488
 11
27.37944836852927
 21
-57.00239988104488
 72
     1
 10
27.37944836852927
 20
-57.00239988104488
 11
27.37944836852927
 21
-57.39899852050087
 72
     1
 10
27.37944836852927
 20
-57.39899852050087
 11
28.48352095235379
 21
-57.39899852050087
 72
     1
 10
28.48352095235379
 20
-57.39899852050087
 11
28.48352095235379
 21
-57.97586926880035
 72
     1
 10
28.48352095235379
 20
-57.97586926880035
 11
27.37944836852927
 21
-57.97586926880035
 72
     1
 10
27.37944836852927
 20
-57.97586926880035
 11
27.37944836852927
 21
-58.37246790825634
 72
     1
 10
27.37944836852927
 20
-58.37246790825634
 11
28.48352095235379
 21
-58.37246790825634
 72
     1
 10
28.48352095235379
 20
-58.37246790825634
 11
28.48352095235379
 21
-58.94933865655582
 72
     1
 10
28.48352095235379
 20
-58.94933865655582
 11
25.87995093270007
 21
-58.94933865655582
 72
     2
 10
25.87995093270007
 20
-57.68743389465055
 40
1.261904761905612
 50
90.0
 51
270.0
 73
     0
 72
     1
 10
25.87995093270007
 20
-56.42552913274494
 11
28.48352095235379
 21
-56.42552913274494
 72
     1
 10
28.48352095235379
 20
-56.42552913274494
 11
28.48352095235379
 21
-57.00239988104488
 97
       12
330
2BA
330
301
330
2BB
330
2BC
330
2BD
330
2BE
330
29B
330
29A
330
299
330
298
330
2BF
330
2B9
 92
       16
 93
        4
 72
     2
 10
26.05868813118369
 20
-57.5579039953775
 40
0.4280236140607291
 50
38.12041979714775
 51
141.8795802028464
 73
     1
 72
     2
 10
26.22376254138717
 20
-57.68743389465055
 40
0.63785105675994
 50
141.8795802028399
 51
218.1204197971682
 73
     1
 72
     2
 10
26.05868813118369
 20
-57.81696379392372
 40
0.4280236140606732
 50
218.1204197971536
 51
321.8795802028523
 73
     1
 72
     2
 10
25.89361372098028
 20
-57.68743389465055
 40
0.6378510567600102
 50
321.8795802028318
 51
398.1204197971601
 73
     1
 97
        4
330
2FB
330
2FA
330
2F5
330
2F4
 75
     1
 76
     0
 52
45.0
 41
0.1
 77
     0
 78
     1
 53
45.0
 43
0.0
 44
0.0
 45
-0.0707106781186548
 46
0.0707106781186548
 79
     0
 98
        1
 10
0.0
 20
0.0
  0
HATCH
  5
397
330
9C
100
AcDbEntity
  8
1
  6
Continuous
 62
     2
100
AcDbHatch
 10
0.0
 20
0.0
 30
0.0
210
0.0
220
0.0
230
1.0
  2
_USER
 70
     0
 71
     1
 91
        4
 92
        1
 93
        8
 72
     1
 10
18.62573002535419
 20
-56.77614451737463
 11
18.62573002535419
 21
-61.37491374811862
 72
     2
 10
18.27511464073936
 20
-61.37491374811862
 40
0.3506153846143363
 50
0.0
 51
90.0
 73
     0
 72
     1
 10
18.27511464073936
 20
-61.72552913273296
 11
13.75171621865928
 21
-61.72552913273296
 72
     2
 10
13.75171621865928
 20
-61.37491374811862
 40
0.35061538461391
 50
90.0
 51
180.0
 73
     0
 72
     1
 10
13.40110083404537
 20
-61.37491374811862
 11
13.40110083404537
 21
-56.77614451737463
 72
     2
 10
13.75171621865928
 20
-56.77614451737463
 40
0.3506153846146844
 50
180.0
 51
270.0
 73
     0
 72
     1
 10
13.75171621865928
 20
-56.42552913275995
 11
18.27511464073936
 21
-56.42552913275995
 72
     2
 10
18.27511464073936
 20
-56.77614451737463
 40
0.3506153846148301
 50
270.0
 51
360.0
 73
     0
 97
        8
330
2AE
330
2F1
330
2AF
330
2FC
330
2AC
330
2F3
330
2AD
330
2F2
 92
       16
 93
        1
 72
     2
 10
15.91666303726888
 20
-58.69257611105695
 40
0.3892387874201901
 50
0.0
 51
360.0
 73
     1
 97
        1
330
317
 92
       16
 93
        8
 72
     2
 10
16.37109089905457
 20
-59.60922206144403
 40
0.2609230769227775
 50
115.3740086783698
 51
180.0
 73
     1
 72
     1
 10
16.11016782213159
 20
-59.60922206144403
 11
16.11016782213159
 21
-60.09009099259697
 72
     2
 10
16.37109089905457
 20
-60.09009099259697
 40
0.2609230769229782
 50
180.0
 51
269.8110329574465
 73
     1
 72
     2
 10
16.37573233319498
 20
-58.68278938303581
 40
1.668232340440728
 50
269.8110329575882
 51
450.1889670424118
 73
     1
 72
     2
 10
16.37109089905457
 20
-57.27548777347465
 40
0.2609230769224678
 50
90.18896704255349
 51
180.0
 73
     1
 72
     1
 10
16.11016782213159
 20
-57.27548777347465
 11
16.11016782213159
 21
-57.77593016067033
 72
     2
 10
16.37109089905457
 20
-57.77593016067033
 40
0.2609230769229782
 50
180.0
 51
244.6259913216303
 73
     1
 72
     2
 10
15.93634486757688
 20
-58.69257611105695
 40
0.7535935125160691
 50
295.3740086781934
 51
424.6259913218214
 73
     0
 97
        8
330
309
330
275
330
306
330
307
330
2E5
330
274
330
308
330
2E4
 92
       16
 93
       12
 72
     2
 10
14.24253826555727
 20
-60.87571716692003
 40
0.26092307692209
 50
180.0
 51
270.0
 73
     1
 72
     1
 10
14.24253826555727
 20
-61.13664024384286
 11
15.46223517548248
 21
-61.13664024384286
 72
     2
 10
15.46223517548248
 20
-60.87571716692003
 40
0.260923076922829
 50
270.0
 51
360.0
 73
     1
 72
     1
 10
15.72315825240528
 20
-60.87571716692003
 11
15.72315825240528
 21
-59.61061722350542
 72
     2
 10
15.46223517548248
 20
-59.61061722350542
 40
0.2609230769228006
 50
0.0
 51
64.80558935144369
 73
     1
 72
     2
 10
15.89412314868497
 20
-58.69257611105695
 40
0.7536343169898668
 50
115.1944106485119
 51
244.8055893514773
 73
     0
 72
     2
 10
15.46223517548248
 20
-57.77453499860883
 40
0.2609230769223463
 50
295.1944106485576
 51
360.0
 73
     1
 72
     1
 10
15.72315825240528
 20
-57.77453499860883
 11
15.72315825240528
 21
-57.27534109855878
 72
     2
 10
15.46223517548248
 20
-57.27534109855878
 40
0.2609230769228006
 50
0.0
 51
90.0
 73
     1
 72
     1
 10
15.46223517548248
 20
-57.01441802163629
 11
14.24253826555727
 21
-57.01441802163629
 72
     2
 10
14.24253826555727
 20
-57.27534109855878
 40
0.2609230769224951
 50
90.0
 51
180.0
 73
     1
 72
     1
 10
13.98161518863518
 20
-57.27534109855878
 11
13.98161518863518
 21
-60.87571716692003
 97
       12
330
2ED
330
2B0
330
2F0
330
2AB
330
2FD
330
2FE
330
2EF
330
2AA
330
2EE
330
2A9
330
2FF
330
2A8
 75
     1
 76
     0
 52
45.0
 41
0.1
 77
     0
 78
     1
 53
45.0
 43
0.0
 44
0.0
 45
-0.0707106781186548
 46
0.0707106781186548
 79
     0
 98
        1
 10
0.0
 20
0.0
  0
HATCH
  5
398
330
9C
100
AcDbEntity
  8
1
  6
Continuous
 62
     2
100
AcDbHatch
 10
0.0
 20
0.0
 30
0.0
210
0.0
220
0.0
230
1.0
  2
_USER
 70
     0
 71
     1
 91
        4
 92
        1
 93
        8
 72
     1
 10
18.62573002535419
 20
-56.77614451737463
 11
18.62573002535419
 21
-61.37491374811862
 72
     2
 10
18.27511464073936
 20
-61.37491374811862
 40
0.3506153846143363
 50
0.0
 51
90.0
 73
     0
 72
     1
 10
18.27511464073936
 20
-61.72552913273296
 11
13.75171621865928
 21
-61.72552913273296
 72
     2
 10
13.75171621865928
 20
-61.37491374811862
 40
0.35061538461391
 50
90.0
 51
180.0
 73
     0
 72
     1
 10
13.40110083404537
 20
-61.37491374811862
 11
13.40110083404537
 21
-56.77614451737463
 72
     2
 10
13.75171621865928
 20
-56.77614451737463
 40
0.3506153846146844
 50
180.0
 51
270.0
 73
     0
 72
     1
 10
13.75171621865928
 20
-56.42552913275995
 11
18.27511464073936
 21
-56.42552913275995
 72
     2
 10
18.27511464073936
 20
-56.77614451737463
 40
0.3506153846148301
 50
270.0
 51
360.0
 73
     0
 97
        8
330
2AE
330
2F1
330
2AF
330
2FC
330
2AC
330
2F3
330
2AD
330
2F2
 92
       16
 93
        1
 72
     2
 10
15.91666303726888
 20
-58.69257611105695
 40
0.3892387874201901
 50
0.0
 51
360.0
 73
     1
 97
        1
330
317
 92
       16
 93
        8
 72
     2
 10
16.37109089905457
 20
-59.60922206144403
 40
0.2609230769227775
 50
115.3740086783698
 51
180.0
 73
     1
 72
     1
 10
16.11016782213159
 20
-59.60922206144403
 11
16.11016782213159
 21
-60.09009099259697
 72
     2
 10
16.37109089905457
 20
-60.09009099259697
 40
0.2609230769229782
 50
180.0
 51
269.8110329574465
 73
     1
 72
     2
 10
16.37573233319498
 20
-58.68278938303581
 40
1.668232340440728
 50
269.8110329575882
 51
450.1889670424118
 73
     1
 72
     2
 10
16.37109089905457
 20
-57.27548777347465
 40
0.2609230769224678
 50
90.18896704255349
 51
180.0
 73
     1
 72
     1
 10
16.11016782213159
 20
-57.27548777347465
 11
16.11016782213159
 21
-57.77593016067033
 72
     2
 10
16.37109089905457
 20
-57.77593016067033
 40
0.2609230769229782
 50
180.0
 51
244.6259913216303
 73
     1
 72
     2
 10
15.93634486757688
 20
-58.69257611105695
 40
0.7535935125160691
 50
295.3740086781934
 51
424.6259913218214
 73
     0
 97
        8
330
309
330
275
330
306
330
307
330
2E5
330
274
330
308
330
2E4
 92
       16
 93
       12
 72
     2
 10
14.24253826555727
 20
-60.87571716692003
 40
0.26092307692209
 50
180.0
 51
270.0
 73
     1
 72
     1
 10
14.24253826555727
 20
-61.13664024384286
 11
15.46223517548248
 21
-61.13664024384286
 72
     2
 10
15.46223517548248
 20
-60.87571716692003
 40
0.260923076922829
 50
270.0
 51
360.0
 73
     1
 72
     1
 10
15.72315825240528
 20
-60.87571716692003
 11
15.72315825240528
 21
-59.61061722350542
 72
     2
 10
15.46223517548248
 20
-59.61061722350542
 40
0.2609230769228006
 50
0.0
 51
64.80558935144369
 73
     1
 72
     2
 10
15.89412314868497
 20
-58.69257611105695
 40
0.7536343169898668
 50
115.1944106485119
 51
244.8055893514773
 73
     0
 72
     2
 10
15.46223517548248
 20
-57.77453499860883
 40
0.2609230769223463
 50
295.1944106485576
 51
360.0
 73
     1
 72
     1
 10
15.72315825240528
 20
-57.77453499860883
 11
15.72315825240528
 21
-57.27534109855878
 72
     2
 10
15.46223517548248
 20
-57.27534109855878
 40
0.2609230769228006
 50
0.0
 51
90.0
 73
     1
 72
     1
 10
15.46223517548248
 20
-57.01441802163629
 11
14.24253826555727
 21
-57.01441802163629
 72
     2
 10
14.24253826555727
 20
-57.27534109855878
 40
0.2609230769224951
 50
90.0
 51
180.0
 73
     1
 72
     1
 10
13.98161518863518
 20
-57.27534109855878
 11
13.98161518863518
 21
-60.87571716692003
 97
       12
330
2ED
330
2B0
330
2F0
330
2AB
330
2FD
330
2FE
330
2EF
330
2AA
330
2EE
330
2A9
330
2FF
330
2A8
 75
     1
 76
     0
 52
45.0
 41
0.1
 77
     0
 78
     1
 53
45.0
 43
0.0
 44
0.0
 45
-0.0707106781186548
 46
0.0707106781186548
 79
     0
 98
        1
 10
0.0
 20
0.0
  0
HATCH
  5
399
330
9C
100
AcDbEntity
  8
1
  6
Continuous
 62
     2
100
AcDbHatch
 10
0.0
 20
0.0
 30
0.0
210
0.0
220
0.0
230
1.0
  2
_USER
 70
     0
 71
     1
 91
        1
 92
        1
 93
       18
 72
     1
 10
36.46833160322268
 20
-59.85069920075978
 11
35.79800182018678
 21
-59.85069920075978
 72
     1
 10
35.79800182018678
 20
-59.85069920075978
 11
35.79800182018678
 21
-61.72552913273296
 72
     1
 10
35.79800182018678
 20
-61.72552913273296
 11
34.81222272748627
 21
-61.72552913273296
 72
     1
 10
34.81222272748627
 20
-61.72552913273296
 11
34.81222272748627
 21
-59.85069920075978
 72
     1
 10
34.81222272748627
 20
-59.85069920075978
 11
33.90012413280186
 21
-59.85069920075978
 72
     2
 10
33.90012413280186
 20
-60.63956118987233
 40
0.7888619891125543
 50
90.0
 51
109.3371432194286
 73
     1
 72
     2
 10
33.77890925833597
 20
-60.29414385071289
 40
0.4227934381773005
 50
109.3371432194784
 51
151.4785267424114
 73
     1
 72
     2
 10
34.09077476088268
 20
-60.46362437082769
 40
0.7777353184585961
 50
151.4785267423654
 51
208.5214732576719
 73
     1
 72
     2
 10
33.77890925833597
 20
-60.63310489094226
 40
0.4227934381784249
 50
208.5214732576834
 51
246.627722111846
 73
     1
 72
     2
 10
33.90819854156166
 20
-60.33393793333062
 40
0.7487023016407226
 50
246.6277221118223
 51
288.4480761180815
 73
     1
 72
     2
 10
33.56260537324607
 20
-59.29794968867225
 40
1.840813230556051
 50
288.4480761181321
 51
301.9309089499388
 73
     1
 72
     1
 10
34.53620458153029
 20
-60.86022301028368
 11
34.53620458153029
 21
-61.58131144565834
 72
     2
 10
33.43213192275618
 20
-57.72587152350843
 40
4.01041063099073
 50
74.02000874166175
 51
84.84185523036335
 73
     0
 72
     2
 10
33.67085596799237
 20
-60.3704091955924
 40
1.355119937140845
 50
84.84185523032178
 51
164.9381082228989
 73
     0
 72
     2
 10
33.32446932050337
 20
-60.46362437082769
 40
0.9964100565230173
 50
164.9381082228978
 51
195.0618917770892
 73
     0
 72
     2
 10
33.67085596799237
 20
-60.5568395460632
 40
1.355119937140671
 50
195.0618917771008
 51
270.0
 73
     0
 72
     1
 10
33.67085596799237
 20
-59.20171960892253
 11
36.46833160322268
 21
-59.20171960892208
 72
     1
 10
36.46833160322268
 20
-59.20171960892208
 11
36.46833160322268
 21
-59.85069920075978
 97
       18
330
277
330
302
330
303
330
2EB
330
2EA
330
2DB
330
2E9
330
2E8
330
304
330
2E7
330
305
330
2E6
330
2DC
330
276
330
27B
330
27A
330
279
330
278
 75
     1
 76
     0
 52
45.0
 41
0.1
 77
     0
 78
     1
 53
45.0
 43
0.0
 44
0.0
 45
-0.0707106781186548
 46
0.0707106781186548
 79
     0
 98
        1
 10
0.0
 20
0.0
  0
HATCH
  5
39A
330
9C
100
AcDbEntity
  8
1
  6
Continuous
 62
     2
100
AcDbHatch
 10
0.0
 20
0.0
 30
0.0
210
0.0
220
0.0
230
1.0
  2
_USER
 70
     0
 71
     1
 91
        1
 92
        1
 93
       18
 72
     1
 10
36.46833160322268
 20
-59.85069920075978
 11
35.79800182018678
 21
-59.85069920075978
 72
     1
 10
35.79800182018678
 20
-59.85069920075978
 11
35.79800182018678
 21
-61.72552913273296
 72
     1
 10
35.79800182018678
 20
-61.72552913273296
 11
34.81222272748627
 21
-61.72552913273296
 72
     1
 10
34.81222272748627
 20
-61.72552913273296
 11
34.81222272748627
 21
-59.85069920075978
 72
     1
 10
34.81222272748627
 20
-59.85069920075978
 11
33.90012413280186
 21
-59.85069920075978
 72
     2
 10
33.90012413280186
 20
-60.63956118987233
 40
0.7888619891125543
 50
90.0
 51
109.3371432194286
 73
     1
 72
     2
 10
33.77890925833597
 20
-60.29414385071289
 40
0.4227934381773005
 50
109.3371432194784
 51
151.4785267424114
 73
     1
 72
     2
 10
34.09077476088268
 20
-60.46362437082769
 40
0.7777353184585961
 50
151.4785267423654
 51
208.5214732576719
 73
     1
 72
     2
 10
33.77890925833597
 20
-60.63310489094226
 40
0.4227934381784249
 50
208.5214732576834
 51
246.627722111846
 73
     1
 72
     2
 10
33.90819854156166
 20
-60.33393793333062
 40
0.7487023016407226
 50
246.6277221118223
 51
288.4480761180815
 73
     1
 72
     2
 10
33.56260537324607
 20
-59.29794968867225
 40
1.840813230556051
 50
288.4480761181321
 51
301.9309089499388
 73
     1
 72
     1
 10
34.53620458153029
 20
-60.86022301028368
 11
34.53620458153029
 21
-61.58131144565834
 72
     2
 10
33.43213192275618
 20
-57.72587152350843
 40
4.01041063099073
 50
74.02000874166175
 51
84.84185523036335
 73
     0
 72
     2
 10
33.67085596799237
 20
-60.3704091955924
 40
1.355119937140845
 50
84.84185523032178
 51
164.9381082228989
 73
     0
 72
     2
 10
33.32446932050337
 20
-60.46362437082769
 40
0.9964100565230173
 50
164.9381082228978
 51
195.0618917770892
 73
     0
 72
     2
 10
33.67085596799237
 20
-60.5568395460632
 40
1.355119937140671
 50
195.0618917771008
 51
270.0
 73
     0
 72
     1
 10
33.67085596799237
 20
-59.20171960892253
 11
36.46833160322268
 21
-59.20171960892208
 72
     1
 10
36.46833160322268
 20
-59.20171960892208
 11
36.46833160322268
 21
-59.85069920075978
 97
       18
330
277
330
302
330
303
330
2EB
330
2EA
330
2DB
330
2E9
330
2E8
330
304
330
2E7
330
305
330
2E6
330
2DC
330
276
330
27B
330
27A
330
279
330
278
 75
     1
 76
     0
 52
45.0
 41
0.1
 77
     0
 78
     1
 53
45.0
 43
0.0
 44
0.0
 45
-0.0707106781186548
 46
0.0707106781186548
 79
     0
 98
        1
 10
0.0
 20
0.0
  0
HATCH
  5
39B
330
9C
100
AcDbEntity
  8
1
  6
Continuous
 62
     2
100
AcDbHatch
 10
0.0
 20
0.0
 30
0.0
210
0.0
220
0.0
230
1.0
  2
_USER
 70
     0
 71
     1
 91
        1
 92
        1
 93
       14
 72
     2
 10
20.36283821654368
 20
-60.5568395460632
 40
1.355119937140984
 50
84.84185523036038
 51
164.9381082228908
 73
     1
 72
     2
 10
20.01645156905377
 20
-60.46362437082769
 40
0.9964100565214014
 50
164.9381082228858
 51
195.0618917771019
 73
     1
 72
     2
 10
20.36283821654368
 20
-60.3704091955924
 40
1.35511993713999
 50
195.0618917770909
 51
275.1581447696418
 73
     1
 72
     2
 10
20.12411417130747
 20
-57.72587152350843
 40
4.01041063099019
 50
275.1581447696246
 51
285.9799912583524
 73
     1
 72
     1
 10
21.22818683008248
 20
-61.58131144565789
 11
21.22818683008248
 21
-60.86022301028322
 72
     2
 10
20.25458762179738
 20
-59.29794968867179
 40
1.840813230556041
 50
58.0690910500379
 51
71.55192388186886
 73
     0
 72
     2
 10
20.60018079011218
 20
-60.33393793333062
 40
0.748702301640452
 50
71.55192388185257
 51
113.3722778881297
 73
     0
 72
     2
 10
20.47089150688728
 20
-60.63310489094226
 40
0.4227934381774303
 50
113.3722778881673
 51
151.4785267423146
 73
     0
 72
     2
 10
20.78275700943308
 20
-60.46362437082769
 40
0.7777353184572434
 50
151.478526742295
 51
208.5214732577275
 73
     0
 72
     2
 10
20.47089150688728
 20
-60.29414385071289
 40
0.4227934381776478
 50
208.5214732577006
 51
246.6277221118147
 73
     0
 72
     2
 10
20.60018079011218
 20
-60.59331080832487
 40
0.7487023016407632
 50
246.6277221118702
 51
288.4480761181364
 73
     0
 72
     2
 10
20.25458762179738
 20
-61.62929905298324
 40
1.840813230556592
 50
288.4480761181312
 51
301.930908949962
 73
     0
 72
     1
 10
21.22818683008248
 20
-60.06702573137181
 11
21.22818683008248
 21
-59.34593729599726
 72
     2
 10
20.12411417130747
 20
-63.2013772181466
 40
4.010410630989974
 50
74.02000874164719
 51
84.84185523037536
 73
     1
 97
       14
330
30A
330
30B
330
30C
330
30D
330
2DD
330
2E3
330
2E2
330
2E1
330
30E
330
30F
330
2E0
330
310
330
2DE
330
2DF
 75
     1
 76
     0
 52
45.0
 41
0.1
 77
     0
 78
     1
 53
45.0
 43
0.0
 44
0.0
 45
-0.0707106781186548
 46
0.0707106781186548
 79
     0
 98
        1
 10
0.0
 20
0.0
  0
HATCH
  5
39C
330
9C
100
AcDbEntity
  8
1
  6
Continuous
 62
     2
100
AcDbHatch
 10
0.0
 20
0.0
 30
0.0
210
0.0
220
0.0
230
1.0
  2
_USER
 70
     0
 71
     1
 91
        1
 92
        1
 93
       14
 72
     2
 10
20.36283821654368
 20
-60.5568395460632
 40
1.355119937140984
 50
84.84185523036038
 51
164.9381082228908
 73
     1
 72
     2
 10
20.01645156905377
 20
-60.46362437082769
 40
0.9964100565214014
 50
164.9381082228858
 51
195.0618917771019
 73
     1
 72
     2
 10
20.36283821654368
 20
-60.3704091955924
 40
1.35511993713999
 50
195.0618917770909
 51
275.1581447696418
 73
     1
 72
     2
 10
20.12411417130747
 20
-57.72587152350843
 40
4.01041063099019
 50
275.1581447696246
 51
285.9799912583524
 73
     1
 72
     1
 10
21.22818683008248
 20
-61.58131144565789
 11
21.22818683008248
 21
-60.86022301028322
 72
     2
 10
20.25458762179738
 20
-59.29794968867179
 40
1.840813230556041
 50
58.0690910500379
 51
71.55192388186886
 73
     0
 72
     2
 10
20.60018079011218
 20
-60.33393793333062
 40
0.748702301640452
 50
71.55192388185257
 51
113.3722778881297
 73
     0
 72
     2
 10
20.47089150688728
 20
-60.63310489094226
 40
0.4227934381774303
 50
113.3722778881673
 51
151.4785267423146
 73
     0
 72
     2
 10
20.78275700943308
 20
-60.46362437082769
 40
0.7777353184572434
 50
151.478526742295
 51
208.5214732577275
 73
     0
 72
     2
 10
20.47089150688728
 20
-60.29414385071289
 40
0.4227934381776478
 50
208.5214732577006
 51
246.6277221118147
 73
     0
 72
     2
 10
20.60018079011218
 20
-60.59331080832487
 40
0.7487023016407632
 50
246.6277221118702
 51
288.4480761181364
 73
     0
 72
     2
 10
20.25458762179738
 20
-61.62929905298324
 40
1.840813230556592
 50
288.4480761181312
 51
301.930908949962
 73
     0
 72
     1
 10
21.22818683008248
 20
-60.06702573137181
 11
21.22818683008248
 21
-59.34593729599726
 72
     2
 10
20.12411417130747
 20
-63.2013772181466
 40
4.010410630989974
 50
74.02000874164719
 51
84.84185523037536
 73
     1
 97
       14
330
30A
330
30B
330
30C
330
30D
330
2DD
330
2E3
330
2E2
330
2E1
330
30E
330
30F
330
2E0
330
310
330
2DE
330
2DF
 75
     1
 76
     0
 52
45.0
 41
0.1
 77
     0
 78
     1
 53
45.0
 43
0.0
 44
0.0
 45
-0.0707106781186548
 46
0.0707106781186548
 79
     0
 98
        1
 10
0.0
 20
0.0
  0
ENDBLK
  5
9E
330
9C
100
AcDbEntity
  8
0
100
AcDbBlockEnd
  0
BLOCK
  5
A0
330
9F
100
AcDbEntity
  8
0
100
AcDbBlockBegin
  2
_punkt
 70
     0
 10
136.2858600000015
 20
-67.57552913273878
 30
0.0
  3
_punkt
  1
_punkt
  0
LINE
  5
39D
330
9F
100
AcDbEntity
  8
1
  6
Continuous
 62
     2
100
AcDbLine
 10
136.2858600000016
 20
-67.57552913273878
 30
0.0
 11
141.2858599999992
 21
-67.57552913273878
 31
0.0
  0
LINE
  5
39E
330
9F
100
AcDbEntity
  8
1
  6
Continuous
 62
     2
100
AcDbLine
 10
136.2858600000016
 20
-67.57552913273878
 30
0.0
 11
136.2858600000016
 21
-72.57552913273832
 31
0.0
  0
ENDBLK
  5
A1
330
9F
100
AcDbEntity
  8
0
100
AcDbBlockEnd
  0
BLOCK
  5
A5
330
A2
100
AcDbEntity
  8
0
100
AcDbBlockBegin
  2
A3I
 70
     0
 10
136.2858600000016
 20
-72.57552913273832
 30
0.0
  3
A3I
  1
A3I
  0
INSERT
  5
A3
330
A2
100
AcDbEntity
  8
1
100
AcDbBlockReference
  2
_rahmen
 10
136.2858600000016
 20
-72.57552913273832
 30
0.0
  0
INSERT
  5
A4
330
A2
100
AcDbEntity
  8
1
100
AcDbBlockReference
  2
_punkt
 10
136.2858600000015
 20
-67.57552913273878
 30
0.0
  0
ENDBLK
  5
A6
330
A2
100
AcDbEntity
  8
0
100
AcDbBlockEnd
  0
BLOCK
  5
AF
330
A7
100
AcDbEntity
  8
0
100
AcDbBlockBegin
  2
1
 70
     0
 10
0.0
 20
0.0
 30
0.0
  3
1
  1
1
  0
INSERT
  5
A8
330
A7
100
AcDbEntity
  8
0
100
AcDbBlockReference
  2
AllgSicht1
 10
55.0
 20
23.0
 30
0.0
  0
INSERT
  5
A9
330
A7
100
AcDbEntity
  8
0
100
AcDbBlockReference
  2
Drfsicht1
 10
-122.714140335297
 20
42.81452646830591
 30
0.0
  0
INSERT
  5
AA
330
A7
100
AcDbEntity
  8
0
100
AcDbBlockReference
  2
Rcksicht1
 10
58.73586
 20
139.378421
 30
0.0
  0
INSERT
  5
AB
330
A7
100
AcDbEntity
  8
0
100
AcDbBlockReference
  2
SA_links1
 10
-27.67154398641333
 20
139.378420991632
 30
0.0
  0
INSERT
  5
AC
330
A7
100
AcDbEntity
  8
0
100
AcDbBlockReference
  2
SA_rechts1
 10
-233.71414
 20
139.378421
 30
0.0
  0
INSERT
  5
AD
330
A7
100
AcDbEntity
  8
0
100
AcDbBlockReference
  2
Vordans1
 10
-137.7141403352975
 20
139.378420991632
 30
0.0
  0
INSERT
  5
AE
330
A7
100
AcDbEntity
  8
0
100
AcDbBlockReference
  2
A3I
 10
136.2858600000016
 20
-72.57552913273832
 30
0.0
  0
LINE
  5
39F
330
A7
100
AcDbEntity
  8
1
  6
Continuous
 62
     2
100
AcDbLine
 10
-202.4690074377014
 20
94.77078096801009
 30
0.0
 11
-189.6126607781979
 21
111.0784487555196
 31
0.0
  0
LINE
  5
3A0
330
A7
100
AcDbEntity
  8
1
  6
Continuous
 62
     2
100
AcDbLine
 10
-51.7376391441554
 20
94.3511867258433
 30
0.0
 11
-31.67154398641333
 21
111.497929737514
 31
0.0
  0
TEXT
  5
3A1
330
A7
100
AcDbEntity
  8
1
 62
     3
100
AcDbText
 10
-221.065806666667
 20
89.8144708672617
 30
0.0
 40
3.5
  1
Fussriegel
 41
0.9
  7
CONVERTER_11
100
AcDbText
  0
TEXT
  5
3A2
330
A7
100
AcDbEntity
  8
1
 62
     3
100
AcDbText
 10
-31.551006210975
 20
140.746083654297
 30
0.0
 40
3.5
  1
IN
 41
0.9
  7
CONVERTER_11
100
AcDbText
  0
TEXT
  5
3A3
330
A7
100
AcDbEntity
  8
1
 62
     3
100
AcDbText
 10
-235.81414
 20
140.215349710018
 30
0.0
 40
3.5
  1
OUT
 41
0.9
  7
CONVERTER_11
100
AcDbText
  0
TEXT
  5
3A4
330
A7
100
AcDbEntity
  8
1
 62
     3
100
AcDbText
 10
-57.0214553765381
 20
86.8184321803444
 30
0.0
 40
3.5
  1
Fussriegel
 41
0.9
  7
CONVERTER_11
100
AcDbText
  0
ENDBLK
  5
B0
330
A7
100
AcDbEntity
  8
0
100
AcDbBlockEnd
  0
BLOCK
  5
114
330
10C
100
AcDbEntity
  8
0
100
AcDbBlockBegin
  2
*D17
 70
     1
 10
0.0
 20
0.0
 30
0.0
  3
*D17
  1
*D17
  0
LINE
  5
10D
330
10C
100
AcDbEntity
  8
1
  6
Continuous
 62
     2
100
AcDbLine
 10
-40.12154398641333
 20
98.6717788562857
 30
0.0
 11
-15.22154398641334
 21
98.6717788562857
 31
0.0
  0
LINE
  5
10E
330
10C
100
AcDbEntity
  8
1
  6
Continuous
 62
     2
100
AcDbLine
 10
-40.12154398641333
 20
113.4339215177807
 30
0.0
 11
-40.12154398641333
 21
96.6717788562857
 31
0.0
  0
LINE
  5
10F
330
10C
100
AcDbEntity
  8
1
  6
Continuous
 62
     2
100
AcDbLine
 10
-15.22154398641334
 20
113.4339215177807
 30
0.0
 11
-15.22154398641334
 21
96.6717788562857
 31
0.0
  0
SOLID
  5
110
330
10C
100
AcDbEntity
  8
1
 62
     2
100
AcDbTrace
 10
-36.62154398641333
 20
99.13256259784158
 30
0.0
 11
-36.62154398641333
 21
98.21099511472981
 31
0.0
 12
-40.12154398641333
 22
98.6717788562857
 32
0.0
 13
-40.12154398641333
 23
98.6717788562857
 33
0.0
  0
SOLID
  5
111
330
10C
100
AcDbEntity
  8
1
 62
     2
100
AcDbTrace
 10
-18.72154398641334
 20
98.21099511472981
 30
0.0
 11
-18.72154398641334
 21
99.13256259784158
 31
0.0
 12
-15.22154398641334
 22
98.6717788562857
 32
0.0
 13
-15.22154398641334
 23
98.6717788562857
 33
0.0
  0
MTEXT
  5
113
330
10C
100
AcDbEntity
  8
1
 62
     3
100
AcDbMText
 10
-31.35942431095682
 20
100.6717788562857
 30
0.0
 40
3.5
 41
0.0
 71
     7
 72
     1
  1
25
  7
CONVERTER_11
 11
0.9999999999970619
 21
2.424068405545306E-6
 31
0.0
 73
     1
 44
0.60024009603842
  0
ENDBLK
  5
115
330
10C
100
AcDbEntity
  8
0
100
AcDbBlockEnd
  0
BLOCK
  5
147
330
140
100
AcDbEntity
  8
0
100
AcDbBlockBegin
  2
*D18
 70
     1
 10
0.0
 20
0.0
 30
0.0
  3
*D18
  1
*D18
  0
LINE
  5
141
330
140
100
AcDbEntity
  8
1
  6
Continuous
 62
     2
100
AcDbLine
 10
-187.7141403352975
 20
80.20651429792049
 30
0.0
 11
-87.71414033529751
 21
80.20651429792049
 31
0.0
  0
LINE
  5
142
330
140
100
AcDbEntity
  8
1
  6
Continuous
 62
     2
100
AcDbLine
 10
-187.7141403352975
 20
107.6839215177806
 30
0.0
 11
-187.7141403352975
 21
78.20651429792049
 31
0.0
  0
LINE
  5
143
330
140
100
AcDbEntity
  8
1
  6
Continuous
 62
     2
100
AcDbLine
 10
-87.71414033529751
 20
107.6839215177806
 30
0.0
 11
-87.71414033529751
 21
78.20651429792049
 31
0.0
  0
SOLID
  5
144
330
140
100
AcDbEntity
  8
1
 62
     2
100
AcDbTrace
 10
-184.2141403352975
 20
80.66729803947638
 30
0.0
 11
-184.2141403352975
 21
79.7457305563646
 31
0.0
 12
-187.7141403352975
 22
80.20651429792049
 32
0.0
 13
-187.7141403352975
 23
80.20651429792049
 33
0.0
  0
SOLID
  5
145
330
140
100
AcDbEntity
  8
1
 62
     2
100
AcDbTrace
 10
-91.21414033529751
 20
79.7457305563646
 30
0.0
 11
-91.21414033529751
 21
80.66729803947638
 31
0.0
 12
-87.71414033529751
 22
80.20651429792049
 32
0.0
 13
-87.71414033529751
 23
80.20651429792049
 33
0.0
  0
MTEXT
  5
146
330
140
100
AcDbEntity
  8
1
 62
     3
100
AcDbMText
 10
-145.7319395239386
 20
82.20651429792049
 30
0.0
 40
3.5
 41
0.0
 71
     7
 72
     1
  1
100
  7
CONVERTER_11
 11
0.9999999999970619
 21
2.424068405545306E-6
 31
0.0
 73
     1
 44
0.60024009603842
  0
ENDBLK
  5
148
330
140
100
AcDbEntity
  8
0
100
AcDbBlockEnd
  0
BLOCK
  5
152
330
14B
100
AcDbEntity
  8
0
100
AcDbBlockBegin
  2
*D19
 70
     1
 10
0.0
 20
0.0
 30
0.0
  3
*D19
  1
*D19
  0
LINE
  5
14C
330
14B
100
AcDbEntity
  8
1
  6
Continuous
 62
     2
100
AcDbLine
 10
-70.57615859087583
 20
107.6839215177806
 30
0.0
 11
-70.57615859087583
 21
171.0729204654834
 31
0.0
  0
LINE
  5
14D
330
14B
100
AcDbEntity
  8
1
  6
Continuous
 62
     2
100
AcDbLine
 10
-187.7141403352975
 20
107.6839215177806
 30
0.0
 11
-68.57615859087583
 21
107.6839215177806
 31
0.0
  0
LINE
  5
14E
330
14B
100
AcDbEntity
  8
1
  6
Continuous
 62
     2
100
AcDbLine
 10
-187.7141403352975
 20
171.0729204654834
 30
0.0
 11
-68.57615859087583
 21
171.0729204654834
 31
0.0
  0
SOLID
  5
14F
330
14B
100
AcDbEntity
  8
1
 62
     2
100
AcDbTrace
 10
-71.03694233243172
 20
111.1839215177806
 30
0.0
 11
-70.11537484931995
 21
111.1839215177806
 31
0.0
 12
-70.57615859087583
 22
107.6839215177806
 32
0.0
 13
-70.57615859087583
 23
107.6839215177806
 33
0.0
  0
SOLID
  5
150
330
14B
100
AcDbEntity
  8
1
 62
     2
100
AcDbTrace
 10
-70.11537484931995
 20
167.5729204654834
 30
0.0
 11
-71.03694233243172
 21
167.5729204654834
 31
0.0
 12
-70.57615859087583
 22
171.0729204654834
 32
0.0
 13
-70.57615859087583
 23
171.0729204654834
 33
0.0
  0
MTEXT
  5
151
330
14B
100
AcDbEntity
  8
1
 62
     3
100
AcDbMText
 10
-72.92615859087583
 20
133.5701603425452
 30
0.0
 40
3.5
 41
0.0
 71
     7
 72
     1
  1
\C3;(\C3;63,4\C3;)
  7
CONVERTER_11
 11
0.0
 21
1.0
 31
0.0
 73
     1
 44
0.60024009603842
  0
ENDBLK
  5
153
330
14B
100
AcDbEntity
  8
0
100
AcDbBlockEnd
  0
BLOCK
  5
15F
330
156
100
AcDbEntity
  8
0
100
AcDbBlockBegin
  2
*D20
 70
     1
 10
0.0
 20
0.0
 30
0.0
  3
*D20
  1
*D20
  0
LINE
  5
157
330
156
100
AcDbEntity
  8
1
  6
Continuous
 62
     2
100
AcDbLine
 10
-95.57615859087579
 20
95.7190142979205
 30
0.0
 11
-95.57615859087579
 21
107.6839215177806
 31
0.0
  0
LINE
  5
158
330
156
100
AcDbEntity
  8
1
  6
Continuous
 62
     2
100
AcDbLine
 10
-95.57615859087579
 20
107.6839215177806
 30
0.0
 11
-95.57615859087579
 21
113.4339215177808
 31
0.0
  0
LINE
  5
159
330
156
100
AcDbEntity
  8
1
  6
Continuous
 62
     2
100
AcDbLine
 10
-95.57615859087579
 20
113.4339215177808
 30
0.0
 11
-95.57615859087579
 21
120.4339215177808
 31
0.0
  0
LINE
  5
15A
330
156
100
AcDbEntity
  8
1
  6
Continuous
 62
     2
100
AcDbLine
 10
-157.4551430249723
 20
107.6839215177806
 30
0.0
 11
-93.57615859087579
 21
107.6839215177806
 31
0.0
  0
LINE
  5
15B
330
156
100
AcDbEntity
  8
1
  6
Continuous
 62
     2
100
AcDbLine
 10
-155.9144351684934
 20
113.4339215177808
 30
0.0
 11
-93.57615859087579
 21
113.4339215177808
 31
0.0
  0
SOLID
  5
15C
330
156
100
AcDbEntity
  8
1
 62
     2
100
AcDbTrace
 10
-95.1153748493199
 20
104.1839215177806
 30
0.0
 11
-96.03694233243168
 21
104.1839215177806
 31
0.0
 12
-95.57615859087579
 22
107.6839215177806
 32
0.0
 13
-95.57615859087579
 23
107.6839215177806
 33
0.0
  0
SOLID
  5
15D
330
156
100
AcDbEntity
  8
1
 62
     2
100
AcDbTrace
 10
-96.03694233243168
 20
116.9339215177808
 30
0.0
 11
-95.1153748493199
 21
116.9339215177808
 31
0.0
 12
-95.57615859087579
 22
113.4339215177808
 32
0.0
 13
-95.57615859087579
 23
113.4339215177808
 33
0.0
  0
MTEXT
  5
15E
330
156
100
AcDbEntity
  8
1
 62
     3
100
AcDbMText
 10
-97.92615859087579
 20
95.7190142979205
 30
0.0
 40
3.5
 41
0.0
 71
     7
 72
     1
  1
5,8
  7
CONVERTER_11
 11
0.0
 21
1.0
 31
0.0
 73
     1
 44
0.60024009603842
  0
ENDBLK
  5
160
330
156
100
AcDbEntity
  8
0
100
AcDbBlockEnd
  0
BLOCK
  5
16A
330
163
100
AcDbEntity
  8
0
100
AcDbBlockBegin
  2
*D21
 70
     1
 10
0.0
 20
0.0
 30
0.0
  3
*D21
  1
*D21
  0
LINE
  5
164
330
163
100
AcDbEntity
  8
1
  6
Continuous
 62
     2
100
AcDbLine
 10
-78.57615859087576
 20
113.4339215177808
 30
0.0
 11
-78.57615859087576
 21
171.0729204654834
 31
0.0
  0
LINE
  5
165
330
163
100
AcDbEntity
  8
1
  6
Continuous
 62
     2
100
AcDbLine
 10
-155.9144351684934
 20
113.4339215177808
 30
0.0
 11
-76.57615859087576
 21
113.4339215177808
 31
0.0
  0
LINE
  5
166
330
163
100
AcDbEntity
  8
1
  6
Continuous
 62
     2
100
AcDbLine
 10
-187.7141403352975
 20
171.0729204654834
 30
0.0
 11
-76.57615859087576
 21
171.0729204654834
 31
0.0
  0
SOLID
  5
167
330
163
100
AcDbEntity
  8
1
 62
     2
100
AcDbTrace
 10
-79.03694233243165
 20
116.9339215177808
 30
0.0
 11
-78.11537484931988
 21
116.9339215177808
 31
0.0
 12
-78.57615859087576
 22
113.4339215177808
 32
0.0
 13
-78.57615859087576
 23
113.4339215177808
 33
0.0
  0
SOLID
  5
168
330
163
100
AcDbEntity
  8
1
 62
     2
100
AcDbTrace
 10
-78.11537484931988
 20
167.5729204654834
 30
0.0
 11
-79.03694233243165
 21
167.5729204654834
 31
0.0
 12
-78.57615859087576
 22
171.0729204654834
 32
0.0
 13
-78.57615859087576
 23
171.0729204654834
 33
0.0
  0
MTEXT
  5
169
330
163
100
AcDbEntity
  8
1
 62
     3
100
AcDbMText
 10
-80.92615859087576
 20
138.467063312968
 30
0.0
 40
3.5
 41
0.0
 71
     7
 72
     1
  1
57,6
  7
CONVERTER_11
 11
0.0
 21
1.0
 31
0.0
 73
     1
 44
0.60024009603842
  0
ENDBLK
  5
16B
330
163
100
AcDbEntity
  8
0
100
AcDbBlockEnd
  0
BLOCK
  5
175
330
16E
100
AcDbEntity
  8
0
100
AcDbBlockBegin
  2
*D22
 70
     1
 10
0.0
 20
0.0
 30
0.0
  3
*D22
  1
*D22
  0
LINE
  5
16F
330
16E
100
AcDbEntity
  8
1
  6
Continuous
 62
     2
100
AcDbLine
 10
-137.8149430202011
 20
98.149966379132
 30
0.0
 11
-120.3149430202011
 21
98.149966379132
 31
0.0
  0
LINE
  5
170
330
16E
100
AcDbEntity
  8
1
  6
Continuous
 62
     2
100
AcDbLine
 10
-137.8149430202011
 20
106.968658036155
 30
0.0
 11
-137.8149430202011
 21
96.149966379132
 31
0.0
  0
LINE
  5
171
330
16E
100
AcDbEntity
  8
1
  6
Continuous
 62
     2
100
AcDbLine
 10
-120.3149430202011
 20
112.3339215171716
 30
0.0
 11
-120.3149430202011
 21
96.149966379132
 31
0.0
  0
SOLID
  5
172
330
16E
100
AcDbEntity
  8
1
 62
     2
100
AcDbTrace
 10
-134.3149430202011
 20
98.61075012068788
 30
0.0
 11
-134.3149430202011
 21
97.68918263757611
 31
0.0
 12
-137.8149430202011
 22
98.149966379132
 32
0.0
 13
-137.8149430202011
 23
98.149966379132
 33
0.0
  0
SOLID
  5
173
330
16E
100
AcDbEntity
  8
1
 62
     2
100
AcDbTrace
 10
-123.8149430202011
 20
97.68918263757611
 30
0.0
 11
-123.8149430202011
 21
98.61075012068788
 31
0.0
 12
-120.3149430202011
 22
98.149966379132
 32
0.0
 13
-120.3149430202011
 23
98.149966379132
 33
0.0
  0
MTEXT
  5
174
330
16E
100
AcDbEntity
  8
1
 62
     3
100
AcDbMText
 10
-133.690786815984
 20
100.499966379132
 30
0.0
 40
3.5
 41
0.0
 71
     7
 72
     1
  1
17,5
  7
CONVERTER_11
 11
0.9999999999970619
 21
2.424068405545306E-6
 31
0.0
 73
     1
 44
0.60024009603842
  0
ENDBLK
  5
176
330
16E
100
AcDbEntity
  8
0
100
AcDbBlockEnd
  0
BLOCK
  5
180
330
179
100
AcDbEntity
  8
0
100
AcDbBlockBegin
  2
*D23
 70
     1
 10
0.0
 20
0.0
 30
0.0
  3
*D23
  1
*D23
  0
LINE
  5
17A
330
179
100
AcDbEntity
  8
1
  6
Continuous
 62
     2
100
AcDbLine
 10
-137.8149430202011
 20
90.2070401783881
 30
0.0
 11
-87.71414033529751
 21
90.2070401783881
 31
0.0
  0
LINE
  5
17B
330
179
100
AcDbEntity
  8
1
  6
Continuous
 62
     2
100
AcDbLine
 10
-137.8149430202011
 20
106.968658036155
 30
0.0
 11
-137.8149430202011
 21
88.2070401783881
 31
0.0
  0
LINE
  5
17C
330
179
100
AcDbEntity
  8
1
  6
Continuous
 62
     2
100
AcDbLine
 10
-87.71414033529751
 20
113.4339215177808
 30
0.0
 11
-87.71414033529751
 21
88.2070401783881
 31
0.0
  0
SOLID
  5
17D
330
179
100
AcDbEntity
  8
1
 62
     2
100
AcDbTrace
 10
-134.3149430202011
 20
90.66782391994398
 30
0.0
 11
-134.3149430202011
 21
89.74625643683221
 31
0.0
 12
-137.8149430202011
 22
90.2070401783881
 32
0.0
 13
-137.8149430202011
 23
90.2070401783881
 33
0.0
  0
SOLID
  5
17E
330
179
100
AcDbEntity
  8
1
 62
     2
100
AcDbTrace
 10
-91.21414033529751
 20
89.74625643683221
 30
0.0
 11
-91.21414033529751
 21
90.66782391994398
 31
0.0
 12
-87.71414033529751
 22
90.2070401783881
 32
0.0
 13
-87.71414033529751
 23
90.2070401783881
 33
0.0
  0
MTEXT
  5
17F
330
179
100
AcDbEntity
  8
1
 62
     3
100
AcDbMText
 10
-118.5335154402955
 20
92.55704017838809
 30
0.0
 40
3.5
 41
0.0
 71
     7
 72
     1
  1
50,1
  7
CONVERTER_11
 11
0.9999999999970619
 21
2.424068405545306E-6
 31
0.0
 73
     1
 44
0.60024009603842
  0
ENDBLK
  5
181
330
179
100
AcDbEntity
  8
0
100
AcDbBlockEnd
  0
BLOCK
  5
18B
330
184
100
AcDbEntity
  8
0
100
AcDbBlockBegin
  2
*D24
 70
     1
 10
0.0
 20
0.0
 30
0.0
  3
*D24
  1
*D24
  0
LINE
  5
185
330
184
100
AcDbEntity
  8
1
  6
Continuous
 62
     2
100
AcDbLine
 10
-87.7141403352975
 20
72.8702467701365
 30
0.0
 11
-189.6125687414394
 21
72.8702467701365
 31
0.0
  0
LINE
  5
186
330
184
100
AcDbEntity
  8
1
  6
Continuous
 62
     2
100
AcDbLine
 10
-87.7141403352975
 20
107.6839215177806
 30
0.0
 11
-87.7141403352975
 21
71.3702467701365
 31
0.0
  0
LINE
  5
187
330
184
100
AcDbEntity
  8
1
  6
Continuous
 62
     2
100
AcDbLine
 10
-189.6125687414394
 20
109.869885672978
 30
0.0
 11
-189.6125687414394
 21
71.3702467701365
 31
0.0
  0
SOLID
  5
188
330
184
100
AcDbEntity
  8
1
 62
     2
100
AcDbTrace
 10
-91.2141403352975
 20
72.40946302858062
 30
0.0
 11
-91.2141403352975
 21
73.33103051169239
 31
0.0
 12
-87.7141403352975
 22
72.8702467701365
 32
0.0
 13
-87.7141403352975
 23
72.8702467701365
 33
0.0
  0
SOLID
  5
189
330
184
100
AcDbEntity
  8
1
 62
     2
100
AcDbTrace
 10
-186.1125687414394
 20
73.33103051169239
 30
0.0
 11
-186.1125687414394
 21
72.40946302858062
 31
0.0
 12
-189.6125687414394
 22
72.8702467701365
 32
0.0
 13
-189.6125687414394
 23
72.8702467701365
 33
0.0
  0
MTEXT
  5
18A
330
184
100
AcDbEntity
  8
1
 62
     3
100
AcDbMText
 10
-146.6764494369
 20
74.7202467701365
 30
0.0
 40
3.5
 41
0.0
 71
     7
 72
     1
  1
101,9
  7
CONVERTER_11
 11
0.9999999999970619
 21
2.424068405545306E-6
 31
0.0
 73
     1
 44
0.60024009603842
  0
ENDBLK
  5
18C
330
184
100
AcDbEntity
  8
0
100
AcDbBlockEnd
  0
ENDSEC
  0
SECTION
  2
ENTITIES
  0
INSERT
  5
B1
330
1F
100
AcDbEntity
  8
1
100
AcDbBlockReference
  2
1
 10
0.0
 20
0.0
 30
0.0
  0
ENDSEC
  0
SECTION
  2
OBJECTS
  0
DICTIONARY
  5
C
330
0
100
AcDbDictionary
281
     1
  3
ACAD_GROUP
350
D
  3
ACAD_LAYOUT
350
1A
  3
ACAD_MATERIAL
350
43
  3
ACAD_MLEADERSTYLE
350
3A7
  3
ACAD_MLINESTYLE
350
17
  3
ACAD_PLOTSETTINGS
350
19
  3
ACAD_PLOTSTYLENAME
350
E
  3
ACAD_SCALELIST
350
47
  3
ACAD_VISUALSTYLE
350
2A
  3
AcDbVariableDictionary
350
3A5
  0
DICTIONARY
  5
D
102
{ACAD_REACTORS
330
C
102
}
330
C
100
AcDbDictionary
281
     1
  0
DICTIONARY
  5
1A
102
{ACAD_REACTORS
330
C
102
}
330
C
100
AcDbDictionary
281
     1
  3
Layout1
350
1E
  3
Layout2
350
26
  3
Model
350
22
  0
DICTIONARY
  5
43
102
{ACAD_REACTORS
330
C
102
}
330
C
100
AcDbDictionary
281
     1
  3
ByBlock
350
45
  3
ByLayer
350
44
  3
Global
350
46
  0
DICTIONARY
  5
3A7
102
{ACAD_REACTORS
330
C
102
}
330
C
100
AcDbDictionary
281
     1
  0
DICTIONARY
  5
17
102
{ACAD_REACTORS
330
C
102
}
330
C
100
AcDbDictionary
281
     1
  3
Standard
350
18
  0
DICTIONARY
  5
19
102
{ACAD_REACTORS
330
C
102
}
330
C
100
AcDbDictionary
281
     1
  0
ACDBDICTIONARYWDFLT
  5
E
102
{ACAD_REACTORS
330
C
102
}
330
C
100
AcDbDictionary
281
     1
  3
Normal
350
F
100
AcDbDictionaryWithDefault
340
F
  0
DICTIONARY
  5
47
102
{ACAD_REACTORS
330
C
102
}
330
C
100
AcDbDictionary
281
     1
  3
A0
350
48
  3
A1
350
49
  3
A2
350
4A
  3
A3
350
4B
  3
A4
350
4C
  3
A5
350
4D
  3
A6
350
4E
  3
A7
350
4F
  3
A8
350
50
  3
A9
350
51
  3
B0
350
52
  3
B1
350
53
  3
B2
350
54
  3
B3
350
55
  3
B4
350
56
  3
B5
350
57
  3
B6
350
58
  3
B7
350
59
  3
B8
350
5A
  3
B9
350
5B
  3
C0
350
5C
  3
C1
350
5D
  3
C2
350
5E
  3
C3
350
5F
  3
C4
350
60
  3
C5
350
61
  3
C6
350
62
  3
C7
350
63
  3
C8
350
64
  3
C9
350
65
  3
D0
350
66
  3
D1
350
67
  3
D2
350
68
  0
DICTIONARY
  5
2A
102
{ACAD_REACTORS
330
C
102
}
330
C
100
AcDbDictionary
281
     1
  3
2dWireframe
350
2F
  3
Basic
350
32
  3
Brighten
350
36
  3
ColorChange
350
3A
  3
Conceptual
350
34
  3
Dim
350
35
  3
EdgeColorOff
350
3D
  3
Facepattern
350
39
  3
Flat
350
2B
  3
FlatWithEdges
350
2C
  3
Gouraud
350
2D
  3
GouraudWithEdges
350
2E
  3
Hidden
350
31
  3
JitterOff
350
3B
  3
Linepattern
350
38
  3
OverhangOff
350
3C
  3
Realistic
350
33
  3
Shaded
350
42
  3
Shaded with edges
350
41
  3
Shades of Gray
350
3E
  3
Sketchy
350
3F
  3
Thicken
350
37
  3
Wireframe
350
30
  3
X-Ray
350
40
  0
DICTIONARY
  5
3A5
102
{ACAD_REACTORS
330
C
102
}
330
C
100
AcDbDictionary
281
     1
  3
CANNOSCALE
350
3AC
  3
DIMASSOC
350
3AA
  3
HIDETEXT
350
3AB
  3
MSLTSCALE
350
3AD
  0
LAYOUT
  5
1E
102
{ACAD_REACTORS
330
1A
102
}
330
1A
100
AcDbPlotSettings
  1

  2
none_device
  4

  6

 40
0.0
 41
0.0
 42
0.0
 43
0.0
 44
0.0
 45
0.0
 46
0.0
 47
0.0
 48
0.0
 49
0.0
140
0.0
141
0.0
142
1.0
143
1.0
 70
   688
 72
     0
 73
     0
 74
     5
  7

 75
    16
147
1.0
148
0.0
149
0.0
100
AcDbLayout
  1
Layout1
 70
     1
 71
     1
 10
0.0
 20
0.0
 11
12.0
 21
9.0
 12
0.0
 22
0.0
 32
0.0
 14
1.00000000000000E+20
 24
1.00000000000000E+20
 34
1.00000000000000E+20
 15
-1.00000000000000E+20
 25
-1.00000000000000E+20
 35
-1.00000000000000E+20
146
0.0
 13
0.0
 23
0.0
 33
0.0
 16
1.0
 26
0.0
 36
0.0
 17
0.0
 27
1.0
 37
0.0
 76
     0
330
1B
  0
LAYOUT
  5
26
102
{ACAD_REACTORS
330
1A
102
}
330
1A
100
AcDbPlotSettings
  1

  2
none_device
  4

  6

 40
0.0
 41
0.0
 42
0.0
 43
0.0
 44
0.0
 45
0.0
 46
0.0
 47
0.0
 48
0.0
 49
0.0
140
0.0
141
0.0
142
1.0
143
1.0
 70
   688
 72
     0
 73
     0
 74
     5
  7

 75
    16
147
1.0
148
0.0
149
0.0
100
AcDbLayout
  1
Layout2
 70
     1
 71
     2
 10
0.0
 20
0.0
 11
0.0
 21
0.0
 12
0.0
 22
0.0
 32
0.0
 14
0.0
 24
0.0
 34
0.0
 15
0.0
 25
0.0
 35
0.0
146
0.0
 13
0.0
 23
0.0
 33
0.0
 16
1.0
 26
0.0
 36
0.0
 17
0.0
 27
1.0
 37
0.0
 76
     0
330
23
  0
LAYOUT
  5
22
102
{ACAD_REACTORS
330
1A
102
}
330
1A
100
AcDbPlotSettings
  1

  2
none_device
  4
Letter_(8.50_x_11.00_Inches)
  6

 40
6.35
 41
6.35
 42
6.35000508
 43
6.35000508
 44
215.9
 45
279.4
 46
0.0
 47
0.0
 48
0.0
 49
0.0
140
0.0
141
0.0
142
1.0
143
1.0
 70
  1712
 72
     0
 73
     0
 74
     0
  7

 75
     0
147
1.0
148
0.0
149
0.0
100
AcDbLayout
  1
Model
 70
     1
 71
     0
 10
0.0
 20
0.0
 11
12.0
 21
9.0
 12
0.0
 22
0.0
 32
0.0
 14
-278.7141399999993
 24
-72.57552913273832
 34
0.0
 15
141.2858599999992
 25
224.4244708672617
 35
0.0
146
0.0
 13
0.0
 23
0.0
 33
0.0
 16
1.0
 26
0.0
 36
0.0
 17
0.0
 27
1.0
 37
0.0
 76
     0
330
1F
331
29
  0
MATERIAL
  5
45
102
{ACAD_REACTORS
330
43
102
}
102
{ACAD_XDICTIONARY
360
3E0
102
}
330
43
100
AcDbMaterial
  1
ByBlock
  0
MATERIAL
  5
44
102
{ACAD_REACTORS
330
43
102
}
102
{ACAD_XDICTIONARY
360
3DE
102
}
330
43
100
AcDbMaterial
  1
ByLayer
  0
MATERIAL
  5
46
102
{ACAD_REACTORS
330
43
102
}
102
{ACAD_XDICTIONARY
360
3E2
102
}
330
43
100
AcDbMaterial
  1
Global
  0
MLINESTYLE
  5
18
102
{ACAD_REACTORS
330
17
102
}
330
17
100
AcDbMlineStyle
  2
Standard
 70
     0
  3

 62
   256
 51
90.0
 52
90.0
 71
     2
 49
0.5
 62
   256
  6
BYLAYER
 49
-0.5
 62
   256
  6
BYLAYER
  0
ACDBPLACEHOLDER
  5
F
102
{ACAD_REACTORS
330
E
102
}
330
E
  0
SCALE
  5
48
102
{ACAD_REACTORS
330
47
102
}
330
47
100
AcDbScale
 70
     0
300
1:1
140
1.0
141
1.0
290
     1
  0
SCALE
  5
49
102
{ACAD_REACTORS
330
47
102
}
330
47
100
AcDbScale
 70
     0
300
1:2
140
1.0
141
2.0
290
     0
  0
SCALE
  5
4A
102
{ACAD_REACTORS
330
47
102
}
330
47
100
AcDbScale
 70
     0
300
1:4
140
1.0
141
4.0
290
     0
  0
SCALE
  5
4B
102
{ACAD_REACTORS
330
47
102
}
330
47
100
AcDbScale
 70
     0
300
1:5
140
1.0
141
5.0
290
     0
  0
SCALE
  5
4C
102
{ACAD_REACTORS
330
47
102
}
330
47
100
AcDbScale
 70
     0
300
1:8
140
1.0
141
8.0
290
     0
  0
SCALE
  5
4D
102
{ACAD_REACTORS
330
47
102
}
330
47
100
AcDbScale
 70
     0
300
1:10
140
1.0
141
10.0
290
     0
  0
SCALE
  5
4E
102
{ACAD_REACTORS
330
47
102
}
330
47
100
AcDbScale
 70
     0
300
1:16
140
1.0
141
16.0
290
     0
  0
SCALE
  5
4F
102
{ACAD_REACTORS
330
47
102
}
330
47
100
AcDbScale
 70
     0
300
1:20
140
1.0
141
20.0
290
     0
  0
SCALE
  5
50
102
{ACAD_REACTORS
330
47
102
}
330
47
100
AcDbScale
 70
     0
300
1:30
140
1.0
141
30.0
290
     0
  0
SCALE
  5
51
102
{ACAD_REACTORS
330
47
102
}
330
47
100
AcDbScale
 70
     0
300
1:40
140
1.0
141
40.0
290
     0
  0
SCALE
  5
52
102
{ACAD_REACTORS
330
47
102
}
330
47
100
AcDbScale
 70
     0
300
1:50
140
1.0
141
50.0
290
     0
  0
SCALE
  5
53
102
{ACAD_REACTORS
330
47
102
}
330
47
100
AcDbScale
 70
     0
300
1:100
140
1.0
141
100.0
290
     0
  0
SCALE
  5
54
102
{ACAD_REACTORS
330
47
102
}
330
47
100
AcDbScale
 70
     0
300
2:1
140
2.0
141
1.0
290
     0
  0
SCALE
  5
55
102
{ACAD_REACTORS
330
47
102
}
330
47
100
AcDbScale
 70
     0
300
4:1
140
4.0
141
1.0
290
     0
  0
SCALE
  5
56
102
{ACAD_REACTORS
330
47
102
}
330
47
100
AcDbScale
 70
     0
300
8:1
140
8.0
141
1.0
290
     0
  0
SCALE
  5
57
102
{ACAD_REACTORS
330
47
102
}
330
47
100
AcDbScale
 70
     0
300
10:1
140
10.0
141
1.0
290
     0
  0
SCALE
  5
58
102
{ACAD_REACTORS
330
47
102
}
330
47
100
AcDbScale
 70
     0
300
100:1
140
100.0
141
1.0
290
     0
  0
SCALE
  5
59
102
{ACAD_REACTORS
330
47
102
}
330
47
100
AcDbScale
 70
     0
300
1/128" = 1'-0"
140
0.0078125
141
12.0
290
     0
  0
SCALE
  5
5A
102
{ACAD_REACTORS
330
47
102
}
330
47
100
AcDbScale
 70
     0
300
1/64" = 1'-0"
140
0.015625
141
12.0
290
     0
  0
SCALE
  5
5B
102
{ACAD_REACTORS
330
47
102
}
330
47
100
AcDbScale
 70
     0
300
1/32" = 1'-0"
140
0.03125
141
12.0
290
     0
  0
SCALE
  5
5C
102
{ACAD_REACTORS
330
47
102
}
330
47
100
AcDbScale
 70
     0
300
1/16" = 1'-0"
140
0.0625
141
12.0
290
     0
  0
SCALE
  5
5D
102
{ACAD_REACTORS
330
47
102
}
330
47
100
AcDbScale
 70
     0
300
3/32" = 1'-0"
140
0.09375
141
12.0
290
     0
  0
SCALE
  5
5E
102
{ACAD_REACTORS
330
47
102
}
330
47
100
AcDbScale
 70
     0
300
1/8" = 1'-0"
140
0.125
141
12.0
290
     0
  0
SCALE
  5
5F
102
{ACAD_REACTORS
330
47
102
}
330
47
100
AcDbScale
 70
     0
300
3/16" = 1'-0"
140
0.1875
141
12.0
290
     0
  0
SCALE
  5
60
102
{ACAD_REACTORS
330
47
102
}
330
47
100
AcDbScale
 70
     0
300
1/4" = 1'-0"
140
0.25
141
12.0
290
     0
  0
SCALE
  5
61
102
{ACAD_REACTORS
330
47
102
}
330
47
100
AcDbScale
 70
     0
300
3/8" = 1'-0"
140
0.375
141
12.0
290
     0
  0
SCALE
  5
62
102
{ACAD_REACTORS
330
47
102
}
330
47
100
AcDbScale
 70
     0
300
1/2" = 1'-0"
140
0.5
141
12.0
290
     0
  0
SCALE
  5
63
102
{ACAD_REACTORS
330
47
102
}
330
47
100
AcDbScale
 70
     0
300
3/4" = 1'-0"
140
0.75
141
12.0
290
     0
  0
SCALE
  5
64
102
{ACAD_REACTORS
330
47
102
}
330
47
100
AcDbScale
 70
     0
300
1" = 1'-0"
140
1.0
141
12.0
290
     0
  0
SCALE
  5
65
102
{ACAD_REACTORS
330
47
102
}
330
47
100
AcDbScale
 70
     0
300
1-1/2" = 1'-0"
140
1.5
141
12.0
290
     0
  0
SCALE
  5
66
102
{ACAD_REACTORS
330
47
102
}
330
47
100
AcDbScale
 70
     0
300
3" = 1'-0"
140
3.0
141
12.0
290
     0
  0
SCALE
  5
67
102
{ACAD_REACTORS
330
47
102
}
330
47
100
AcDbScale
 70
     0
300
6" = 1'-0"
140
6.0
141
12.0
290
     0
  0
SCALE
  5
68
102
{ACAD_REACTORS
330
47
102
}
330
47
100
AcDbScale
 70
     0
300
1'-0" = 1'-0"
140
12.0
141
12.0
290
     0
  0
VISUALSTYLE
  5
2F
102
{ACAD_REACTORS
330
2A
102
}
102
{ACAD_XDICTIONARY
360
3B6
102
}
330
2A
100
AcDbVisualStyle
  2
2dWireframe
 70
     4
 71
     0
 72
     2
 73
     0
 90
        0
 40
0.6
 41
30.0
 62
     5
 63
     7
 74
     1
 91
        4
 64
     7
 65
   257
 75
     1
175
     1
 42
1.0
 92
        0
 66
   257
 43
1.0
 76
     1
 77
     6
 78
     2
 67
     7
 79
     5
170
     0
171
     0
290
     0
174
     0
 93
        1
 44
0.0
173
     0
291
     0
 45
0.0
1001
ACAD
1000
AcDbSavedByObjectVersion
1070
     0
  0
VISUALSTYLE
  5
32
102
{ACAD_REACTORS
330
2A
102
}
102
{ACAD_XDICTIONARY
360
3BC
102
}
330
2A
100
AcDbVisualStyle
  2
Basic
 70
     7
 71
     1
 72
     0
 73
     1
 90
        0
 40
0.6
 41
30.0
 62
     5
 63
     7
 74
     0
 91
        4
 64
     7
 65
   257
 75
     1
175
     1
 42
1.0
 92
        8
 66
     7
 43
1.0
 76
     1
 77
     6
 78
     2
 67
     7
 79
     5
170
     0
171
     0
290
     0
174
     0
 93
        1
 44
0.0
173
     0
291
     1
 45
0.0
1001
ACAD
1000
AcDbSavedByObjectVersion
1070
     0
  0
VISUALSTYLE
  5
36
102
{ACAD_REACTORS
330
2A
102
}
102
{ACAD_XDICTIONARY
360
3C4
102
}
330
2A
100
AcDbVisualStyle
  2
Brighten
 70
    12
 71
     2
 72
     2
 73
     0
 90
        0
 40
0.6
 41
30.0
 62
     5
 63
     7
 74
     1
 91
        4
 64
     7
 65
   257
 75
     1
175
     1
 42
1.0
 92
        8
 66
     7
 43
1.0
 76
     1
 77
     6
 78
     2
 67
     7
 79
     5
170
     0
171
     0
290
     0
174
     0
 93
        1
 44
50.0
173
     0
291
     1
 45
0.0
1001
ACAD
1000
AcDbSavedByObjectVersion
1070
     0
  0
VISUALSTYLE
  5
3A
102
{ACAD_REACTORS
330
2A
102
}
102
{ACAD_XDICTIONARY
360
3CC
102
}
330
2A
100
AcDbVisualStyle
  2
ColorChange
 70
    16
 71
     2
 72
     2
 73
     3
 90
        0
 40
0.6
 41
30.0
 62
     5
 63
     8
 74
     1
 91
        4
 64
     7
 65
   257
 75
     1
175
     1
 42
1.0
 92
        8
 66
     8
 43
1.0
 76
     1
 77
     6
 78
     2
 67
     7
 79
     5
170
     0
171
     0
290
     0
174
     0
 93
        1
 44
0.0
173
     0
291
     1
 45
0.0
1001
ACAD
1000
AcDbSavedByObjectVersion
1070
     0
  0
VISUALSTYLE
  5
34
102
{ACAD_REACTORS
330
2A
102
}
102
{ACAD_XDICTIONARY
360
3C0
102
}
330
2A
100
AcDbVisualStyle
  2
Conceptual
 70
     9
 71
     3
 72
     2
 73
     0
 90
        0
 40
0.6
 41
30.0
 62
     5
 63
     7
 74
     2
 91
        2
 64
     7
 65
   257
 75
     1
175
     1
 42
179.0
 92
        8
 66
     7
 43
1.0
 76
     1
 77
     6
 78
     2
 67
     7
 79
     3
170
     0
171
     0
290
     0
174
     0
 93
        1
 44
0.0
173
     0
291
     0
 45
0.0
1001
ACAD
1000
AcDbSavedByObjectVersion
1070
     0
  0
VISUALSTYLE
  5
35
102
{ACAD_REACTORS
330
2A
102
}
102
{ACAD_XDICTIONARY
360
3C2
102
}
330
2A
100
AcDbVisualStyle
  2
Dim
 70
    11
 71
     2
 72
     2
 73
     0
 90
        0
 40
0.6
 41
30.0
 62
     5
 63
     7
 74
     1
 91
        4
 64
     7
 65
   257
 75
     1
175
     1
 42
1.0
 92
        8
 66
     7
 43
1.0
 76
     1
 77
     6
 78
     2
 67
     7
 79
     5
170
     0
171
     0
290
     0
174
     0
 93
        1
 44
-50.0
173
     0
291
     1
 45
0.0
1001
ACAD
1000
AcDbSavedByObjectVersion
1070
     0
  0
VISUALSTYLE
  5
3D
102
{ACAD_REACTORS
330
2A
102
}
102
{ACAD_XDICTIONARY
360
3D2
102
}
330
2A
100
AcDbVisualStyle
  2
EdgeColorOff
 70
    22
 71
     2
 72
     2
 73
     0
 90
        0
 40
0.6
 41
30.0
 62
     5
 63
     7
 74
     1
 91
        4
 64
     7
 65
   257
 75
     1
175
     1
 42
1.0
 92
        8
 66
     7
 43
1.0
 76
     1
 77
     6
 78
     2
 67
     7
 79
     5
170
     0
171
     0
290
     0
174
     0
 93
        1
 44
0.0
173
     0
291
     1
 45
0.0
1001
ACAD
1000
AcDbSavedByObjectVersion
1070
     0
  0
VISUALSTYLE
  5
39
102
{ACAD_REACTORS
330
2A
102
}
102
{ACAD_XDICTIONARY
360
3CA
102
}
330
2A
100
AcDbVisualStyle
  2
Facepattern
 70
    15
 71
     2
 72
     2
 73
     0
 90
        0
 40
0.6
 41
30.0
 62
     5
 63
     7
 74
     1
 91
        4
 64
     7
 65
   257
 75
     1
175
     1
 42
1.0
 92
        8
 66
     7
 43
1.0
 76
     1
 77
     6
 78
     2
 67
     7
 79
     5
170
     0
171
     0
290
     0
174
     0
 93
        1
 44
0.0
173
     0
291
     1
 45
0.0
1001
ACAD
1000
AcDbSavedByObjectVersion
1070
     0
  0
VISUALSTYLE
  5
2B
102
{ACAD_REACTORS
330
2A
102
}
102
{ACAD_XDICTIONARY
360
3AE
102
}
330
2A
100
AcDbVisualStyle
  2
Flat
 70
     0
 71
     2
 72
     1
 73
     1
 90
        2
 40
0.6
 41
30.0
 62
     5
 63
     7
 74
     0
 91
        0
 64
     7
 65
   257
 75
     1
175
     1
 42
1.0
 92
        8
 66
     7
 43
1.0
 76
     1
 77
     6
 78
     2
 67
     7
 79
     5
170
     0
171
     0
290
     0
174
     0
 93
       13
 44
0.0
173
     0
291
     1
 45
0.0
1001
ACAD
1000
AcDbSavedByObjectVersion
1070
     0
  0
VISUALSTYLE
  5
2C
102
{ACAD_REACTORS
330
2A
102
}
102
{ACAD_XDICTIONARY
360
3B0
102
}
330
2A
100
AcDbVisualStyle
  2
FlatWithEdges
 70
     1
 71
     2
 72
     1
 73
     1
 90
        2
 40
0.6
 41
30.0
 62
     5
 63
     7
 74
     1
 91
        0
 64
     7
 65
   257
 75
     1
175
     1
 42
1.0
 92
        0
 66
   257
 43
1.0
 76
     1
 77
     6
 78
     2
 67
     7
 79
     5
170
     0
171
     0
290
     0
174
     0
 93
       13
 44
0.0
173
     0
291
     1
 45
0.0
1001
ACAD
1000
AcDbSavedByObjectVersion
1070
     0
  0
VISUALSTYLE
  5
2D
102
{ACAD_REACTORS
330
2A
102
}
102
{ACAD_XDICTIONARY
360
3B2
102
}
330
2A
100
AcDbVisualStyle
  2
Gouraud
 70
     2
 71
     2
 72
     2
 73
     1
 90
        2
 40
0.6
 41
30.0
 62
     5
 63
     7
 74
     0
 91
        0
 64
     7
 65
   257
 75
     1
175
     1
 42
1.0
 92
        0
 66
     7
 43
1.0
 76
     1
 77
     6
 78
     2
 67
     7
 79
     5
170
     0
171
     0
290
     0
174
     0
 93
       13
 44
0.0
173
     0
291
     1
 45
0.0
1001
ACAD
1000
AcDbSavedByObjectVersion
1070
     0
  0
VISUALSTYLE
  5
2E
102
{ACAD_REACTORS
330
2A
102
}
102
{ACAD_XDICTIONARY
360
3B4
102
}
330
2A
100
AcDbVisualStyle
  2
GouraudWithEdges
 70
     3
 71
     2
 72
     2
 73
     1
 90
        2
 40
0.6
 41
30.0
 62
     5
 63
     7
 74
     1
 91
        0
 64
     7
 65
   257
 75
     1
175
     1
 42
1.0
 92
        0
 66
   257
 43
1.0
 76
     1
 77
     6
 78
     2
 67
     7
 79
     5
170
     0
171
     0
290
     0
174
     0
 93
       13
 44
0.0
173
     0
291
     1
 45
0.0
1001
ACAD
1000
AcDbSavedByObjectVersion
1070
     0
  0
VISUALSTYLE
  5
31
102
{ACAD_REACTORS
330
2A
102
}
102
{ACAD_XDICTIONARY
360
3BA
102
}
330
2A
100
AcDbVisualStyle
  2
Hidden
 70
     6
 71
     1
 72
     2
 73
     2
 90
        0
 40
0.6
 41
30.0
 62
     5
 63
     7
 74
     2
 91
        2
 64
     7
 65
   257
 75
     2
175
     1
 42
40.0
 92
        0
 66
   257
 43
1.0
 76
     1
 77
     6
 78
     2
 67
     7
 79
     3
170
     0
171
     0
290
     0
174
     0
 93
        1
 44
0.0
173
     0
291
     0
 45
0.0
1001
ACAD
1000
AcDbSavedByObjectVersion
1070
     0
  0
VISUALSTYLE
  5
3B
102
{ACAD_REACTORS
330
2A
102
}
102
{ACAD_XDICTIONARY
360
3CE
102
}
330
2A
100
AcDbVisualStyle
  2
JitterOff
 70
    20
 71
     2
 72
     2
 73
     0
 90
        0
 40
0.6
 41
30.0
 62
     5
 63
     7
 74
     1
 91
        4
 64
     7
 65
   257
 75
     1
175
     1
 42
1.0
 92
       10
 66
     7
 43
1.0
 76
     1
 77
     6
 78
     2
 67
     7
 79
     5
170
     0
171
     0
290
     0
174
     0
 93
        1
 44
0.0
173
     0
291
     1
 45
0.0
1001
ACAD
1000
AcDbSavedByObjectVersion
1070
     0
  0
VISUALSTYLE
  5
38
102
{ACAD_REACTORS
330
2A
102
}
102
{ACAD_XDICTIONARY
360
3C8
102
}
330
2A
100
AcDbVisualStyle
  2
Linepattern
 70
    14
 71
     2
 72
     2
 73
     0
 90
        0
 40
0.6
 41
30.0
 62
     5
 63
     7
 74
     1
 91
        4
 64
     7
 65
   257
 75
     7
175
     7
 42
1.0
 92
        8
 66
     7
 43
1.0
 76
     1
 77
     6
 78
     2
 67
     7
 79
     5
170
     0
171
     0
290
     0
174
     0
 93
        1
 44
0.0
173
     0
291
     1
 45
0.0
1001
ACAD
1000
AcDbSavedByObjectVersion
1070
     0
  0
VISUALSTYLE
  5
3C
102
{ACAD_REACTORS
330
2A
102
}
102
{ACAD_XDICTIONARY
360
3D0
102
}
330
2A
100
AcDbVisualStyle
  2
OverhangOff
 70
    21
 71
     2
 72
     2
 73
     0
 90
        0
 40
0.6
 41
30.0
 62
     5
 63
     7
 74
     1
 91
        4
 64
     7
 65
   257
 75
     1
175
     1
 42
1.0
 92
        9
 66
     7
 43
1.0
 76
     1
 77
     6
 78
     2
 67
     7
 79
     5
170
     0
171
     0
290
     0
174
     0
 93
        1
 44
0.0
173
     0
291
     1
 45
0.0
1001
ACAD
1000
AcDbSavedByObjectVersion
1070
     0
  0
VISUALSTYLE
  5
33
102
{ACAD_REACTORS
330
2A
102
}
102
{ACAD_XDICTIONARY
360
3BE
102
}
330
2A
100
AcDbVisualStyle
  2
Realistic
 70
     8
 71
     2
 72
     3
 73
     0
 90
        2
 40
0.6
 41
30.0
 62
     5
 63
     7
 74
     0
 91
        0
 64
     7
 65
   257
 75
     1
175
     1
 42
1.0
 92
        8
 66
   257
 43
1.0
 76
     1
 77
     6
 78
     2
 67
     7
 79
     3
170
     0
171
     0
290
     0
174
     0
 93
       13
 44
0.0
173
     0
291
     0
 45
0.0
1001
ACAD
1000
AcDbSavedByObjectVersion
1070
     0
  0
VISUALSTYLE
  5
42
102
{ACAD_REACTORS
330
2A
102
}
102
{ACAD_XDICTIONARY
360
3DC
102
}
330
2A
100
AcDbVisualStyle
  2
Shaded
 70
    27
 71
     2
 72
     2
 73
     1
 90
        2
 40
0.6
 41
30.0
 62
     5
 63
     7
 74
     0
 91
        4
 64
     7
 65
   257
 75
     1
175
     1
 42
1.0
 92
        8
 66
   257
 43
1.0
 76
     1
 77
     6
 78
     2
 67
     8
 79
     3
170
     0
171
     0
290
     0
174
     0
 93
        5
 44
0.0
173
     0
291
     0
 45
0.0
1001
ACAD
1000
AcDbSavedByObjectVersion
1070
     0
  0
VISUALSTYLE
  5
41
102
{ACAD_REACTORS
330
2A
102
}
102
{ACAD_XDICTIONARY
360
3DA
102
}
330
2A
100
AcDbVisualStyle
  2
Shaded with edges
 70
    26
 71
     2
 72
     2
 73
     1
 90
        2
 40
0.6
 41
30.0
 62
     5
 63
     7
 74
     1
 91
       10
 64
     7
 65
   257
 75
     2
175
     1
 42
1.0
 92
        8
 66
   257
 43
1.0
 76
     1
 77
     6
 78
     2
 67
     7
 79
     3
170
     0
171
     0
290
     0
174
     0
 93
        5
 44
0.0
173
     0
291
     0
 45
0.0
1001
ACAD
1000
AcDbSavedByObjectVersion
1070
     0
  0
VISUALSTYLE
  5
3E
102
{ACAD_REACTORS
330
2A
102
}
102
{ACAD_XDICTIONARY
360
3D4
102
}
330
2A
100
AcDbVisualStyle
  2
Shades of Gray
 70
    23
 71
     2
 72
     2
 73
     3
 90
        0
 40
0.6
 41
30.0
 62
     5
 63
     7
 74
     2
 91
        2
 64
     7
 65
     7
 75
     1
175
     1
 42
40.0
 92
        8
 66
     7
 43
1.0
 76
     1
 77
     6
 78
     2
 67
     7
 79
     3
170
     0
171
     0
290
     0
174
     0
 93
        1
 44
0.0
173
     0
291
     0
 45
0.0
1001
ACAD
1000
AcDbSavedByObjectVersion
1070
     0
  0
VISUALSTYLE
  5
3F
102
{ACAD_REACTORS
330
2A
102
}
102
{ACAD_XDICTIONARY
360
3D6
102
}
330
2A
100
AcDbVisualStyle
  2
Sketchy
 70
    24
 71
     1
 72
     2
 73
     2
 90
        0
 40
0.6
 41
30.0
 62
     5
 63
     7
 74
     2
 91
        2
 64
     7
 65
     7
 75
     1
175
     1
 42
40.0
 92
       11
 66
     7
 43
1.0
 76
     1
 77
     6
 78
     2
 67
     7
 79
     6
170
     0
171
     0
290
     0
174
     0
 93
        1
 44
0.0
173
     0
291
     0
 45
0.0
1001
ACAD
1000
AcDbSavedByObjectVersion
1070
     0
  0
VISUALSTYLE
  5
37
102
{ACAD_REACTORS
330
2A
102
}
102
{ACAD_XDICTIONARY
360
3C6
102
}
330
2A
100
AcDbVisualStyle
  2
Thicken
 70
    13
 71
     2
 72
     2
 73
     0
 90
        0
 40
0.6
 41
30.0
 62
     5
 63
     7
 74
     1
 91
        4
 64
     7
 65
   257
 75
     1
175
     1
 42
1.0
 92
       12
 66
     7
 43
1.0
 76
     1
 77
     6
 78
     2
 67
     7
 79
     5
170
     0
171
     0
290
     0
174
     0
 93
        1
 44
0.0
173
     0
291
     1
 45
0.0
1001
ACAD
1000
AcDbSavedByObjectVersion
1070
     0
  0
VISUALSTYLE
  5
30
102
{ACAD_REACTORS
330
2A
102
}
102
{ACAD_XDICTIONARY
360
3B8
102
}
330
2A
100
AcDbVisualStyle
  2
Wireframe
 70
     5
 71
     0
 72
     2
 73
     0
 90
        0
 40
0.6
 41
30.0
 62
     5
 63
     7
 74
     1
 91
        4
 64
     7
 65
   257
 75
     1
175
     1
 42
1.0
 92
        0
 66
   257
 43
1.0
 76
     1
 77
     6
 78
     2
 67
     7
 79
     3
170
     0
171
     0
290
     0
174
     0
 93
        1
 44
0.0
173
     0
291
     0
 45
0.0
1001
ACAD
1000
AcDbSavedByObjectVersion
1070
     0
  0
VISUALSTYLE
  5
40
102
{ACAD_REACTORS
330
2A
102
}
102
{ACAD_XDICTIONARY
360
3D8
102
}
330
2A
100
AcDbVisualStyle
  2
X-Ray
 70
    25
 71
     2
 72
     2
 73
     1
 90
        1
 40
0.5
 41
30.0
 62
     5
 63
     7
 74
     1
 91
        0
 64
     7
 65
   257
 75
     1
175
     1
 42
1.0
 92
        8
 66
     7
 43
1.0
 76
     1
 77
     6
 78
     2
 67
     7
 79
     3
170
     0
171
     0
290
     0
174
     0
 93
       13
 44
0.0
173
     0
291
     0
 45
0.0
1001
ACAD
1000
AcDbSavedByObjectVersion
1070
     0
  0
DICTIONARYVAR
  5
3AC
102
{ACAD_REACTORS
330
3A5
102
}
330
3A5
100
DictionaryVariables
280
     0
  1
1:1
  0
DICTIONARYVAR
  5
3AA
102
{ACAD_REACTORS
330
3A5
102
}
330
3A5
100
DictionaryVariables
280
     0
  1
2
  0
DICTIONARYVAR
  5
3AB
102
{ACAD_REACTORS
330
3A5
102
}
330
3A5
100
DictionaryVariables
280
     0
  1
1
  0
DICTIONARYVAR
  5
3AD
102
{ACAD_REACTORS
330
3A5
102
}
330
3A5
100
DictionaryVariables
280
     0
  1
1
  0
DICTIONARY
  5
3E0
330
45
100
AcDbDictionary
280
     1
281
     1
  3
ACAD_XREC_ROUNDTRIP
360
3E1
  0
DICTIONARY
  5
3DE
330
44
100
AcDbDictionary
280
     1
281
     1
  3
ACAD_XREC_ROUNDTRIP
360
3DF
  0
DICTIONARY
  5
3E2
330
46
100
AcDbDictionary
280
     1
281
     1
  3
ACAD_XREC_ROUNDTRIP
360
3E3
  0
DICTIONARY
  5
3B6
330
2F
100
AcDbDictionary
280
     1
281
     1
  3
ACAD_XREC_ROUNDTRIP
360
3B7
  0
DICTIONARY
  5
3BC
330
32
100
AcDbDictionary
280
     1
281
     1
  3
ACAD_XREC_ROUNDTRIP
360
3BD
  0
DICTIONARY
  5
3C4
330
36
100
AcDbDictionary
280
     1
281
     1
  3
ACAD_XREC_ROUNDTRIP
360
3C5
  0
DICTIONARY
  5
3CC
330
3A
100
AcDbDictionary
280
     1
281
     1
  3
ACAD_XREC_ROUNDTRIP
360
3CD
  0
DICTIONARY
  5
3C0
330
34
100
AcDbDictionary
280
     1
281
     1
  3
ACAD_XREC_ROUNDTRIP
360
3C1
  0
DICTIONARY
  5
3C2
330
35
100
AcDbDictionary
280
     1
281
     1
  3
ACAD_XREC_ROUNDTRIP
360
3C3
  0
DICTIONARY
  5
3D2
330
3D
100
AcDbDictionary
280
     1
281
     1
  3
ACAD_XREC_ROUNDTRIP
360
3D3
  0
DICTIONARY
  5
3CA
330
39
100
AcDbDictionary
280
     1
281
     1
  3
ACAD_XREC_ROUNDTRIP
360
3CB
  0
DICTIONARY
  5
3AE
330
2B
100
AcDbDictionary
280
     1
281
     1
  3
ACAD_XREC_ROUNDTRIP
360
3AF
  0
DICTIONARY
  5
3B0
330
2C
100
AcDbDictionary
280
     1
281
     1
  3
ACAD_XREC_ROUNDTRIP
360
3B1
  0
DICTIONARY
  5
3B2
330
2D
100
AcDbDictionary
280
     1
281
     1
  3
ACAD_XREC_ROUNDTRIP
360
3B3
  0
DICTIONARY
  5
3B4
330
2E
100
AcDbDictionary
280
     1
281
     1
  3
ACAD_XREC_ROUNDTRIP
360
3B5
  0
DICTIONARY
  5
3BA
330
31
100
AcDbDictionary
280
     1
281
     1
  3
ACAD_XREC_ROUNDTRIP
360
3BB
  0
DICTIONARY
  5
3CE
330
3B
100
AcDbDictionary
280
     1
281
     1
  3
ACAD_XREC_ROUNDTRIP
360
3CF
  0
DICTIONARY
  5
3C8
330
38
100
AcDbDictionary
280
     1
281
     1
  3
ACAD_XREC_ROUNDTRIP
360
3C9
  0
DICTIONARY
  5
3D0
330
3C
100
AcDbDictionary
280
     1
281
     1
  3
ACAD_XREC_ROUNDTRIP
360
3D1
  0
DICTIONARY
  5
3BE
330
33
100
AcDbDictionary
280
     1
281
     1
  3
ACAD_XREC_ROUNDTRIP
360
3BF
  0
DICTIONARY
  5
3DC
330
42
100
AcDbDictionary
280
     1
281
     1
  3
ACAD_XREC_ROUNDTRIP
360
3DD
  0
DICTIONARY
  5
3DA
330
41
100
AcDbDictionary
280
     1
281
     1
  3
ACAD_XREC_ROUNDTRIP
360
3DB
  0
DICTIONARY
  5
3D4
330
3E
100
AcDbDictionary
280
     1
281
     1
  3
ACAD_XREC_ROUNDTRIP
360
3D5
  0
DICTIONARY
  5
3D6
330
3F
100
AcDbDictionary
280
     1
281
     1
  3
ACAD_XREC_ROUNDTRIP
360
3D7
  0
DICTIONARY
  5
3C6
330
37
100
AcDbDictionary
280
     1
281
     1
  3
ACAD_XREC_ROUNDTRIP
360
3C7
  0
DICTIONARY
  5
3B8
330
30
100
AcDbDictionary
280
     1
281
     1
  3
ACAD_XREC_ROUNDTRIP
360
3B9
  0
DICTIONARY
  5
3D8
330
40
100
AcDbDictionary
280
     1
281
     1
  3
ACAD_XREC_ROUNDTRIP
360
3D9
  0
XRECORD
  5
3E1
102
{ACAD_REACTORS
330
3E0
102
}
330
3E0
100
AcDbXrecord
280
     1
102
MATERIAL
148
0.0
149
0.0
149
0.0
 93
        0
 94
      127
282
     0
 72
     1
 77
     1
171
     1
175
     1
179
     1
273
     0
  0
XRECORD
  5
3DF
102
{ACAD_REACTORS
330
3DE
102
}
330
3DE
100
AcDbXrecord
280
     1
102
MATERIAL
148
0.0
149
0.0
149
0.0
 93
        0
 94
      127
282
     0
 72
     1
 77
     1
171
     1
175
     1
179
     1
273
     0
  0
XRECORD
  5
3E3
102
{ACAD_REACTORS
330
3E2
102
}
330
3E2
100
AcDbXrecord
280
     1
102
MATERIAL
148
0.0
149
0.0
149
0.0
 93
        0
 94
      127
282
     0
 72
     1
 77
     1
171
     1
175
     1
179
     1
273
     0
  0
XRECORD
  5
3B7
102
{ACAD_REACTORS
330
3B6
102
}
330
3B6
100
AcDbXrecord
280
     1
102
RTVSPropertyOp0
 70
     1
102
RTVSPropertyOp1
 70
     1
102
RTVSPropertyOp2
 70
     1
102
RTVSPropertyOp3
 70
     1
102
RTVSPropertyOp4
 70
     1
102
RTVSPropertyOp5
 70
     1
102
RTVSPropertyOp6
 70
     1
102
RTVSPropertyOp7
 70
     1
102
RTVSPropertyOp8
 70
     1
102
RTVSPropertyOp9
 70
     1
102
RTVSPropertyOp10
 70
     1
102
RTVSPropertyOp11
 70
     1
102
RTVSPropertyOp12
 70
     1
102
RTVSPropertyOp13
 70
     1
102
RTVSPropertyOp14
 70
     1
102
RTVSPropertyOp15
 70
     1
102
RTVSPropertyOp16
 70
     1
102
RTVSPropertyOp17
 70
     1
102
RTVSPropertyOp18
 70
     1
102
RTVSPropertyOp19
 70
     1
102
RTVSPropertyOp20
 70
     1
102
RTVSPropertyOp21
 70
     1
102
RTVSPropertyOp22
 70
     1
102
RTVSPropertyOp23
 70
     1
102
RTVSPropertyOp24
 70
     1
102
RTVSPropertyOp25
 70
     1
102
RTVSPropertyOp26
 70
     1
102
RTVSPropertyOp27
 70
     1
102
RTVSPropertyOp28
 70
     1
102
RTVSPropertyOp29
 70
     1
102
RTVSPropertyOp30
 70
     1
102
RTVSPropertyOp31
 70
     1
102
RTVSPropertyOp32
 70
     1
102
RTVSPropertyOp33
 70
     1
102
RTVSPropertyOp34
 70
     1
102
RTVSPropertyOp35
 70
     1
102
RTVSPropertyOp36
 70
     1
102
RTVSPropertyOp37
 70
     1
102
RTVSPropertyOp38
 70
     1
102
RTVSPropertyOp39
 70
     1
102
RTVSPropertyOp40
 70
     1
102
RTVSPropertyOp41
 70
     1
102
RTVSPropertyOp42
 70
     1
102
RTVSPropertyOp43
 70
     1
102
RTVSPropertyOp44
 70
     1
102
RTVSPropertyOp45
 70
     1
102
RTVSPropertyOp46
 70
     1
102
RTVSPropertyOp47
 70
     1
102
RTVSPropertyOp48
 70
     1
102
RTVSPropertyOp49
 70
     1
102
RTVSPropertyOp50
 70
     1
102
RTVSPropertyOp51
 70
     0
102
RTVSPropertyOp52
 70
     0
102
RTVSPropertyOp53
 70
     1
102
RTVSPropertyOp54
 70
     1
102
RTVSPropertyOp55
 70
     1
102
RTVSPropertyOp56
 70
     1
102
RTVSPropertyOp57
 70
     1
102
RTVSPost2010Prop28
280
     1
102
RTVSPost2010PropOp28
 70
     1
102
RTVSPost2010Prop29
280
     1
102
RTVSPost2010PropOp29
 70
     1
102
RTVSPost2010Prop30
280
     0
102
RTVSPost2010PropOp30
 70
     1
102
RTVSPost2010Prop31
280
     0
102
RTVSPost2010PropOp31
 70
     1
102
RTVSPost2010Prop32
280
     0
102
RTVSPost2010PropOp32
 70
     1
102
RTVSPost2010Prop33
280
     0
102
RTVSPost2010PropOp33
 70
     1
102
RTVSPost2010Prop34
280
     0
102
RTVSPost2010PropOp34
 70
     1
102
RTVSPost2010Prop35
280
     0
102
RTVSPost2010PropOp35
 70
     1
102
RTVSPost2010Prop36
280
     0
102
RTVSPost2010PropOp36
 70
     1
102
RTVSPost2010Prop37
 90
       50
102
RTVSPost2010PropOp37
 70
     1
102
RTVSPost2010Prop38
140
0.0
102
RTVSPost2010PropOp38
 70
     1
102
RTVSPost2010Prop39
140
1.0
102
RTVSPost2010PropOp39
 70
     1
102
RTVSPost2010Prop40
 90
        0
102
RTVSPost2010PropOp40
 70
     1
102
RTVSPost2010Prop41ColorIndex
 90
       18
102
RTVSPost2010Prop41ColorRGB
 90
        0
102
RTVSPost2010PropOp41
 70
     1
102
RTVSPost2010Prop42
 90
       50
102
RTVSPost2010PropOp42
 70
     1
102
RTVSPost2010Prop43
 90
        3
102
RTVSPost2010PropOp43
 70
     1
102
RTVSPost2010Prop44ColorIndex
 90
        5
102
RTVSPost2010Prop44ColorRGB
 90
      255
102
RTVSPost2010PropOp44
 70
     1
102
RTVSPost2010Prop45
280
     0
102
RTVSPost2010PropOp45
 70
     1
102
RTVSPost2010Prop46
 90
       50
102
RTVSPost2010PropOp46
 70
     1
102
RTVSPost2010Prop47
 90
       50
102
RTVSPost2010PropOp47
 70
     1
102
RTVSPost2010Prop48
 90
       50
102
RTVSPost2010PropOp48
 70
     1
102
RTVSPost2010Prop49
280
     0
102
RTVSPost2010PropOp49
 70
     1
102
RTVSPost2010Prop50
 90
       50
102
RTVSPost2010PropOp50
 70
     1
102
RTVSPost2010Prop51ColorIndex
 90
      256
102
RTVSPost2010Prop51ColorRGB
 90
-16777216
102
RTVSPost2010PropOp51
 70
     0
102
RTVSPost2010Prop52
140
1.0
102
RTVSPost2010PropOp52
 70
     0
102
RTVSPost2010Prop53
 90
        2
102
RTVSPost2010PropOp53
 70
     1
102
RTVSPost2010Prop54
  1
strokes_ogs.tif
102
RTVSPost2010PropOp54
 70
     1
102
RTVSPost2010Prop55
280
     0
102
RTVSPost2010PropOp55
 70
     1
102
RTVSPost2010Prop56
140
1.0
102
RTVSPost2010PropOp56
 70
     1
102
RTVSPost2010Prop57
140
1.0
102
RTVSPost2010PropOp57
 70
     1
  0
XRECORD
  5
3BD
102
{ACAD_REACTORS
330
3BC
102
}
330
3BC
100
AcDbXrecord
280
     1
102
RTVSPropertyOp0
 70
     1
102
RTVSPropertyOp1
 70
     1
102
RTVSPropertyOp2
 70
     1
102
RTVSPropertyOp3
 70
     1
102
RTVSPropertyOp4
 70
     1
102
RTVSPropertyOp5
 70
     1
102
RTVSPropertyOp6
 70
     1
102
RTVSPropertyOp7
 70
     1
102
RTVSPropertyOp8
 70
     1
102
RTVSPropertyOp9
 70
     1
102
RTVSPropertyOp10
 70
     1
102
RTVSPropertyOp11
 70
     1
102
RTVSPropertyOp12
 70
     1
102
RTVSPropertyOp13
 70
     1
102
RTVSPropertyOp14
 70
     1
102
RTVSPropertyOp15
 70
     1
102
RTVSPropertyOp16
 70
     1
102
RTVSPropertyOp17
 70
     1
102
RTVSPropertyOp18
 70
     1
102
RTVSPropertyOp19
 70
     1
102
RTVSPropertyOp20
 70
     1
102
RTVSPropertyOp21
 70
     1
102
RTVSPropertyOp22
 70
     1
102
RTVSPropertyOp23
 70
     1
102
RTVSPropertyOp24
 70
     1
102
RTVSPropertyOp25
 70
     1
102
RTVSPropertyOp26
 70
     1
102
RTVSPropertyOp27
 70
     1
102
RTVSPropertyOp28
 70
     1
102
RTVSPropertyOp29
 70
     1
102
RTVSPropertyOp30
 70
     1
102
RTVSPropertyOp31
 70
     1
102
RTVSPropertyOp32
 70
     1
102
RTVSPropertyOp33
 70
     1
102
RTVSPropertyOp34
 70
     1
102
RTVSPropertyOp35
 70
     1
102
RTVSPropertyOp36
 70
     1
102
RTVSPropertyOp37
 70
     1
102
RTVSPropertyOp38
 70
     1
102
RTVSPropertyOp39
 70
     1
102
RTVSPropertyOp40
 70
     1
102
RTVSPropertyOp41
 70
     1
102
RTVSPropertyOp42
 70
     1
102
RTVSPropertyOp43
 70
     1
102
RTVSPropertyOp44
 70
     1
102
RTVSPropertyOp45
 70
     1
102
RTVSPropertyOp46
 70
     1
102
RTVSPropertyOp47
 70
     1
102
RTVSPropertyOp48
 70
     1
102
RTVSPropertyOp49
 70
     1
102
RTVSPropertyOp50
 70
     1
102
RTVSPropertyOp51
 70
     0
102
RTVSPropertyOp52
 70
     0
102
RTVSPropertyOp53
 70
     1
102
RTVSPropertyOp54
 70
     1
102
RTVSPropertyOp55
 70
     1
102
RTVSPropertyOp56
 70
     1
102
RTVSPropertyOp57
 70
     1
102
RTVSPost2010Prop28
280
     0
102
RTVSPost2010PropOp28
 70
     1
102
RTVSPost2010Prop29
280
     1
102
RTVSPost2010PropOp29
 70
     1
102
RTVSPost2010Prop30
280
     1
102
RTVSPost2010PropOp30
 70
     1
102
RTVSPost2010Prop31
280
     0
102
RTVSPost2010PropOp31
 70
     1
102
RTVSPost2010Prop32
280
     0
102
RTVSPost2010PropOp32
 70
     1
102
RTVSPost2010Prop33
280
     0
102
RTVSPost2010PropOp33
 70
     1
102
RTVSPost2010Prop34
280
     0
102
RTVSPost2010PropOp34
 70
     1
102
RTVSPost2010Prop35
280
     0
102
RTVSPost2010PropOp35
 70
     1
102
RTVSPost2010Prop36
280
     0
102
RTVSPost2010PropOp36
 70
     1
102
RTVSPost2010Prop37
 90
       50
102
RTVSPost2010PropOp37
 70
     1
102
RTVSPost2010Prop38
140
0.0
102
RTVSPost2010PropOp38
 70
     1
102
RTVSPost2010Prop39
140
1.0
102
RTVSPost2010PropOp39
 70
     1
102
RTVSPost2010Prop40
 90
        0
102
RTVSPost2010PropOp40
 70
     1
102
RTVSPost2010Prop41ColorIndex
 90
       18
102
RTVSPost2010Prop41ColorRGB
 90
        0
102
RTVSPost2010PropOp41
 70
     1
102
RTVSPost2010Prop42
 90
       50
102
RTVSPost2010PropOp42
 70
     1
102
RTVSPost2010Prop43
 90
        3
102
RTVSPost2010PropOp43
 70
     1
102
RTVSPost2010Prop44ColorIndex
 90
        5
102
RTVSPost2010Prop44ColorRGB
 90
      255
102
RTVSPost2010PropOp44
 70
     1
102
RTVSPost2010Prop45
280
     0
102
RTVSPost2010PropOp45
 70
     1
102
RTVSPost2010Prop46
 90
       50
102
RTVSPost2010PropOp46
 70
     1
102
RTVSPost2010Prop47
 90
       50
102
RTVSPost2010PropOp47
 70
     1
102
RTVSPost2010Prop48
 90
       50
102
RTVSPost2010PropOp48
 70
     1
102
RTVSPost2010Prop49
280
     0
102
RTVSPost2010PropOp49
 70
     1
102
RTVSPost2010Prop50
 90
       50
102
RTVSPost2010PropOp50
 70
     1
102
RTVSPost2010Prop51ColorIndex
 90
      256
102
RTVSPost2010Prop51ColorRGB
 90
-16777216
102
RTVSPost2010PropOp51
 70
     0
102
RTVSPost2010Prop52
140
1.0
102
RTVSPost2010PropOp52
 70
     0
102
RTVSPost2010Prop53
 90
        2
102
RTVSPost2010PropOp53
 70
     1
102
RTVSPost2010Prop54
  1
strokes_ogs.tif
102
RTVSPost2010PropOp54
 70
     1
102
RTVSPost2010Prop55
280
     0
102
RTVSPost2010PropOp55
 70
     1
102
RTVSPost2010Prop56
140
1.0
102
RTVSPost2010PropOp56
 70
     1
102
RTVSPost2010Prop57
140
1.0
102
RTVSPost2010PropOp57
 70
     1
  0
XRECORD
  5
3C5
102
{ACAD_REACTORS
330
3C4
102
}
330
3C4
100
AcDbXrecord
280
     1
102
RTVSPropertyOp0
 70
     1
102
RTVSPropertyOp1
 70
     1
102
RTVSPropertyOp2
 70
     1
102
RTVSPropertyOp3
 70
     1
102
RTVSPropertyOp4
 70
     1
102
RTVSPropertyOp5
 70
     1
102
RTVSPropertyOp6
 70
     1
102
RTVSPropertyOp7
 70
     1
102
RTVSPropertyOp8
 70
     1
102
RTVSPropertyOp9
 70
     1
102
RTVSPropertyOp10
 70
     1
102
RTVSPropertyOp11
 70
     1
102
RTVSPropertyOp12
 70
     1
102
RTVSPropertyOp13
 70
     1
102
RTVSPropertyOp14
 70
     1
102
RTVSPropertyOp15
 70
     1
102
RTVSPropertyOp16
 70
     1
102
RTVSPropertyOp17
 70
     1
102
RTVSPropertyOp18
 70
     1
102
RTVSPropertyOp19
 70
     1
102
RTVSPropertyOp20
 70
     1
102
RTVSPropertyOp21
 70
     1
102
RTVSPropertyOp22
 70
     1
102
RTVSPropertyOp23
 70
     1
102
RTVSPropertyOp24
 70
     1
102
RTVSPropertyOp25
 70
     1
102
RTVSPropertyOp26
 70
     1
102
RTVSPropertyOp27
 70
     1
102
RTVSPropertyOp28
 70
     1
102
RTVSPropertyOp29
 70
     1
102
RTVSPropertyOp30
 70
     1
102
RTVSPropertyOp31
 70
     1
102
RTVSPropertyOp32
 70
     1
102
RTVSPropertyOp33
 70
     1
102
RTVSPropertyOp34
 70
     1
102
RTVSPropertyOp35
 70
     1
102
RTVSPropertyOp36
 70
     1
102
RTVSPropertyOp37
 70
     1
102
RTVSPropertyOp38
 70
     1
102
RTVSPropertyOp39
 70
     1
102
RTVSPropertyOp40
 70
     1
102
RTVSPropertyOp41
 70
     1
102
RTVSPropertyOp42
 70
     1
102
RTVSPropertyOp43
 70
     1
102
RTVSPropertyOp44
 70
     1
102
RTVSPropertyOp45
 70
     1
102
RTVSPropertyOp46
 70
     1
102
RTVSPropertyOp47
 70
     1
102
RTVSPropertyOp48
 70
     1
102
RTVSPropertyOp49
 70
     1
102
RTVSPropertyOp50
 70
     1
102
RTVSPropertyOp51
 70
     0
102
RTVSPropertyOp52
 70
     0
102
RTVSPropertyOp53
 70
     1
102
RTVSPropertyOp54
 70
     1
102
RTVSPropertyOp55
 70
     1
102
RTVSPropertyOp56
 70
     1
102
RTVSPropertyOp57
 70
     1
102
RTVSPost2010Prop28
280
     0
102
RTVSPost2010PropOp28
 70
     1
102
RTVSPost2010Prop29
280
     1
102
RTVSPost2010PropOp29
 70
     1
102
RTVSPost2010Prop30
280
     1
102
RTVSPost2010PropOp30
 70
     1
102
RTVSPost2010Prop31
280
     0
102
RTVSPost2010PropOp31
 70
     1
102
RTVSPost2010Prop32
280
     0
102
RTVSPost2010PropOp32
 70
     1
102
RTVSPost2010Prop33
280
     0
102
RTVSPost2010PropOp33
 70
     1
102
RTVSPost2010Prop34
280
     0
102
RTVSPost2010PropOp34
 70
     1
102
RTVSPost2010Prop35
280
     0
102
RTVSPost2010PropOp35
 70
     1
102
RTVSPost2010Prop36
280
     0
102
RTVSPost2010PropOp36
 70
     1
102
RTVSPost2010Prop37
 90
       50
102
RTVSPost2010PropOp37
 70
     1
102
RTVSPost2010Prop38
140
0.0
102
RTVSPost2010PropOp38
 70
     1
102
RTVSPost2010Prop39
140
1.0
102
RTVSPost2010PropOp39
 70
     1
102
RTVSPost2010Prop40
 90
        0
102
RTVSPost2010PropOp40
 70
     1
102
RTVSPost2010Prop41ColorIndex
 90
       18
102
RTVSPost2010Prop41ColorRGB
 90
        0
102
RTVSPost2010PropOp41
 70
     1
102
RTVSPost2010Prop42
 90
       50
102
RTVSPost2010PropOp42
 70
     1
102
RTVSPost2010Prop43
 90
        3
102
RTVSPost2010PropOp43
 70
     1
102
RTVSPost2010Prop44ColorIndex
 90
        5
102
RTVSPost2010Prop44ColorRGB
 90
      255
102
RTVSPost2010PropOp44
 70
     1
102
RTVSPost2010Prop45
280
     0
102
RTVSPost2010PropOp45
 70
     1
102
RTVSPost2010Prop46
 90
       50
102
RTVSPost2010PropOp46
 70
     1
102
RTVSPost2010Prop47
 90
       50
102
RTVSPost2010PropOp47
 70
     1
102
RTVSPost2010Prop48
 90
       50
102
RTVSPost2010PropOp48
 70
     1
102
RTVSPost2010Prop49
280
     0
102
RTVSPost2010PropOp49
 70
     1
102
RTVSPost2010Prop50
 90
       50
102
RTVSPost2010PropOp50
 70
     1
102
RTVSPost2010Prop51ColorIndex
 90
      256
102
RTVSPost2010Prop51ColorRGB
 90
-16777216
102
RTVSPost2010PropOp51
 70
     0
102
RTVSPost2010Prop52
140
1.0
102
RTVSPost2010PropOp52
 70
     0
102
RTVSPost2010Prop53
 90
        2
102
RTVSPost2010PropOp53
 70
     1
102
RTVSPost2010Prop54
  1
strokes_ogs.tif
102
RTVSPost2010PropOp54
 70
     1
102
RTVSPost2010Prop55
280
     0
102
RTVSPost2010PropOp55
 70
     1
102
RTVSPost2010Prop56
140
1.0
102
RTVSPost2010PropOp56
 70
     1
102
RTVSPost2010Prop57
140
1.0
102
RTVSPost2010PropOp57
 70
     1
  0
XRECORD
  5
3CD
102
{ACAD_REACTORS
330
3CC
102
}
330
3CC
100
AcDbXrecord
280
     1
102
RTVSPropertyOp0
 70
     1
102
RTVSPropertyOp1
 70
     1
102
RTVSPropertyOp2
 70
     1
102
RTVSPropertyOp3
 70
     1
102
RTVSPropertyOp4
 70
     1
102
RTVSPropertyOp5
 70
     1
102
RTVSPropertyOp6
 70
     1
102
RTVSPropertyOp7
 70
     1
102
RTVSPropertyOp8
 70
     1
102
RTVSPropertyOp9
 70
     1
102
RTVSPropertyOp10
 70
     1
102
RTVSPropertyOp11
 70
     1
102
RTVSPropertyOp12
 70
     1
102
RTVSPropertyOp13
 70
     1
102
RTVSPropertyOp14
 70
     1
102
RTVSPropertyOp15
 70
     1
102
RTVSPropertyOp16
 70
     1
102
RTVSPropertyOp17
 70
     1
102
RTVSPropertyOp18
 70
     1
102
RTVSPropertyOp19
 70
     1
102
RTVSPropertyOp20
 70
     1
102
RTVSPropertyOp21
 70
     1
102
RTVSPropertyOp22
 70
     1
102
RTVSPropertyOp23
 70
     1
102
RTVSPropertyOp24
 70
     1
102
RTVSPropertyOp25
 70
     1
102
RTVSPropertyOp26
 70
     1
102
RTVSPropertyOp27
 70
     1
102
RTVSPropertyOp28
 70
     1
102
RTVSPropertyOp29
 70
     1
102
RTVSPropertyOp30
 70
     1
102
RTVSPropertyOp31
 70
     1
102
RTVSPropertyOp32
 70
     1
102
RTVSPropertyOp33
 70
     1
102
RTVSPropertyOp34
 70
     1
102
RTVSPropertyOp35
 70
     1
102
RTVSPropertyOp36
 70
     1
102
RTVSPropertyOp37
 70
     1
102
RTVSPropertyOp38
 70
     1
102
RTVSPropertyOp39
 70
     1
102
RTVSPropertyOp40
 70
     1
102
RTVSPropertyOp41
 70
     1
102
RTVSPropertyOp42
 70
     1
102
RTVSPropertyOp43
 70
     1
102
RTVSPropertyOp44
 70
     1
102
RTVSPropertyOp45
 70
     1
102
RTVSPropertyOp46
 70
     1
102
RTVSPropertyOp47
 70
     1
102
RTVSPropertyOp48
 70
     1
102
RTVSPropertyOp49
 70
     1
102
RTVSPropertyOp50
 70
     1
102
RTVSPropertyOp51
 70
     0
102
RTVSPropertyOp52
 70
     0
102
RTVSPropertyOp53
 70
     1
102
RTVSPropertyOp54
 70
     1
102
RTVSPropertyOp55
 70
     1
102
RTVSPropertyOp56
 70
     1
102
RTVSPropertyOp57
 70
     1
102
RTVSPost2010Prop28
280
     0
102
RTVSPost2010PropOp28
 70
     1
102
RTVSPost2010Prop29
280
     1
102
RTVSPost2010PropOp29
 70
     1
102
RTVSPost2010Prop30
280
     1
102
RTVSPost2010PropOp30
 70
     1
102
RTVSPost2010Prop31
280
     0
102
RTVSPost2010PropOp31
 70
     1
102
RTVSPost2010Prop32
280
     0
102
RTVSPost2010PropOp32
 70
     1
102
RTVSPost2010Prop33
280
     0
102
RTVSPost2010PropOp33
 70
     1
102
RTVSPost2010Prop34
280
     0
102
RTVSPost2010PropOp34
 70
     1
102
RTVSPost2010Prop35
280
     0
102
RTVSPost2010PropOp35
 70
     1
102
RTVSPost2010Prop36
280
     0
102
RTVSPost2010PropOp36
 70
     1
102
RTVSPost2010Prop37
 90
       50
102
RTVSPost2010PropOp37
 70
     1
102
RTVSPost2010Prop38
140
0.0
102
RTVSPost2010PropOp38
 70
     1
102
RTVSPost2010Prop39
140
1.0
102
RTVSPost2010PropOp39
 70
     1
102
RTVSPost2010Prop40
 90
        0
102
RTVSPost2010PropOp40
 70
     1
102
RTVSPost2010Prop41ColorIndex
 90
       18
102
RTVSPost2010Prop41ColorRGB
 90
        0
102
RTVSPost2010PropOp41
 70
     1
102
RTVSPost2010Prop42
 90
       50
102
RTVSPost2010PropOp42
 70
     1
102
RTVSPost2010Prop43
 90
        3
102
RTVSPost2010PropOp43
 70
     1
102
RTVSPost2010Prop44ColorIndex
 90
        5
102
RTVSPost2010Prop44ColorRGB
 90
      255
102
RTVSPost2010PropOp44
 70
     1
102
RTVSPost2010Prop45
280
     0
102
RTVSPost2010PropOp45
 70
     1
102
RTVSPost2010Prop46
 90
       50
102
RTVSPost2010PropOp46
 70
     1
102
RTVSPost2010Prop47
 90
       50
102
RTVSPost2010PropOp47
 70
     1
102
RTVSPost2010Prop48
 90
       50
102
RTVSPost2010PropOp48
 70
     1
102
RTVSPost2010Prop49
280
     0
102
RTVSPost2010PropOp49
 70
     1
102
RTVSPost2010Prop50
 90
       50
102
RTVSPost2010PropOp50
 70
     1
102
RTVSPost2010Prop51ColorIndex
 90
      256
102
RTVSPost2010Prop51ColorRGB
 90
-16777216
102
RTVSPost2010PropOp51
 70
     0
102
RTVSPost2010Prop52
140
1.0
102
RTVSPost2010PropOp52
 70
     0
102
RTVSPost2010Prop53
 90
        2
102
RTVSPost2010PropOp53
 70
     1
102
RTVSPost2010Prop54
  1
strokes_ogs.tif
102
RTVSPost2010PropOp54
 70
     1
102
RTVSPost2010Prop55
280
     0
102
RTVSPost2010PropOp55
 70
     1
102
RTVSPost2010Prop56
140
1.0
102
RTVSPost2010PropOp56
 70
     1
102
RTVSPost2010Prop57
140
1.0
102
RTVSPost2010PropOp57
 70
     1
  0
XRECORD
  5
3C1
102
{ACAD_REACTORS
330
3C0
102
}
330
3C0
100
AcDbXrecord
280
     1
102
RTVSPropertyOp0
 70
     1
102
RTVSPropertyOp1
 70
     1
102
RTVSPropertyOp2
 70
     1
102
RTVSPropertyOp3
 70
     1
102
RTVSPropertyOp4
 70
     1
102
RTVSPropertyOp5
 70
     1
102
RTVSPropertyOp6
 70
     1
102
RTVSPropertyOp7
 70
     1
102
RTVSPropertyOp8
 70
     1
102
RTVSPropertyOp9
 70
     1
102
RTVSPropertyOp10
 70
     1
102
RTVSPropertyOp11
 70
     1
102
RTVSPropertyOp12
 70
     1
102
RTVSPropertyOp13
 70
     1
102
RTVSPropertyOp14
 70
     1
102
RTVSPropertyOp15
 70
     1
102
RTVSPropertyOp16
 70
     1
102
RTVSPropertyOp17
 70
     1
102
RTVSPropertyOp18
 70
     1
102
RTVSPropertyOp19
 70
     1
102
RTVSPropertyOp20
 70
     1
102
RTVSPropertyOp21
 70
     1
102
RTVSPropertyOp22
 70
     1
102
RTVSPropertyOp23
 70
     1
102
RTVSPropertyOp24
 70
     1
102
RTVSPropertyOp25
 70
     1
102
RTVSPropertyOp26
 70
     1
102
RTVSPropertyOp27
 70
     1
102
RTVSPropertyOp28
 70
     1
102
RTVSPropertyOp29
 70
     1
102
RTVSPropertyOp30
 70
     1
102
RTVSPropertyOp31
 70
     1
102
RTVSPropertyOp32
 70
     1
102
RTVSPropertyOp33
 70
     1
102
RTVSPropertyOp34
 70
     1
102
RTVSPropertyOp35
 70
     1
102
RTVSPropertyOp36
 70
     1
102
RTVSPropertyOp37
 70
     1
102
RTVSPropertyOp38
 70
     1
102
RTVSPropertyOp39
 70
     1
102
RTVSPropertyOp40
 70
     1
102
RTVSPropertyOp41
 70
     1
102
RTVSPropertyOp42
 70
     1
102
RTVSPropertyOp43
 70
     1
102
RTVSPropertyOp44
 70
     1
102
RTVSPropertyOp45
 70
     1
102
RTVSPropertyOp46
 70
     1
102
RTVSPropertyOp47
 70
     1
102
RTVSPropertyOp48
 70
     1
102
RTVSPropertyOp49
 70
     1
102
RTVSPropertyOp50
 70
     1
102
RTVSPropertyOp51
 70
     0
102
RTVSPropertyOp52
 70
     0
102
RTVSPropertyOp53
 70
     1
102
RTVSPropertyOp54
 70
     1
102
RTVSPropertyOp55
 70
     1
102
RTVSPropertyOp56
 70
     1
102
RTVSPropertyOp57
 70
     1
102
RTVSPost2010Prop28
280
     0
102
RTVSPost2010PropOp28
 70
     1
102
RTVSPost2010Prop29
280
     1
102
RTVSPost2010PropOp29
 70
     1
102
RTVSPost2010Prop30
280
     1
102
RTVSPost2010PropOp30
 70
     1
102
RTVSPost2010Prop31
280
     0
102
RTVSPost2010PropOp31
 70
     1
102
RTVSPost2010Prop32
280
     0
102
RTVSPost2010PropOp32
 70
     1
102
RTVSPost2010Prop33
280
     0
102
RTVSPost2010PropOp33
 70
     1
102
RTVSPost2010Prop34
280
     0
102
RTVSPost2010PropOp34
 70
     1
102
RTVSPost2010Prop35
280
     0
102
RTVSPost2010PropOp35
 70
     1
102
RTVSPost2010Prop36
280
     0
102
RTVSPost2010PropOp36
 70
     1
102
RTVSPost2010Prop37
 90
       50
102
RTVSPost2010PropOp37
 70
     1
102
RTVSPost2010Prop38
140
0.0
102
RTVSPost2010PropOp38
 70
     1
102
RTVSPost2010Prop39
140
1.0
102
RTVSPost2010PropOp39
 70
     1
102
RTVSPost2010Prop40
 90
        0
102
RTVSPost2010PropOp40
 70
     1
102
RTVSPost2010Prop41ColorIndex
 90
       18
102
RTVSPost2010Prop41ColorRGB
 90
        0
102
RTVSPost2010PropOp41
 70
     1
102
RTVSPost2010Prop42
 90
       50
102
RTVSPost2010PropOp42
 70
     1
102
RTVSPost2010Prop43
 90
        3
102
RTVSPost2010PropOp43
 70
     1
102
RTVSPost2010Prop44ColorIndex
 90
        5
102
RTVSPost2010Prop44ColorRGB
 90
      255
102
RTVSPost2010PropOp44
 70
     1
102
RTVSPost2010Prop45
280
     0
102
RTVSPost2010PropOp45
 70
     1
102
RTVSPost2010Prop46
 90
       50
102
RTVSPost2010PropOp46
 70
     1
102
RTVSPost2010Prop47
 90
       50
102
RTVSPost2010PropOp47
 70
     1
102
RTVSPost2010Prop48
 90
       50
102
RTVSPost2010PropOp48
 70
     1
102
RTVSPost2010Prop49
280
     0
102
RTVSPost2010PropOp49
 70
     1
102
RTVSPost2010Prop50
 90
       50
102
RTVSPost2010PropOp50
 70
     1
102
RTVSPost2010Prop51ColorIndex
 90
      256
102
RTVSPost2010Prop51ColorRGB
 90
-16777216
102
RTVSPost2010PropOp51
 70
     0
102
RTVSPost2010Prop52
140
1.0
102
RTVSPost2010PropOp52
 70
     0
102
RTVSPost2010Prop53
 90
        2
102
RTVSPost2010PropOp53
 70
     1
102
RTVSPost2010Prop54
  1
strokes_ogs.tif
102
RTVSPost2010PropOp54
 70
     1
102
RTVSPost2010Prop55
280
     0
102
RTVSPost2010PropOp55
 70
     1
102
RTVSPost2010Prop56
140
1.0
102
RTVSPost2010PropOp56
 70
     1
102
RTVSPost2010Prop57
140
1.0
102
RTVSPost2010PropOp57
 70
     1
  0
XRECORD
  5
3C3
102
{ACAD_REACTORS
330
3C2
102
}
330
3C2
100
AcDbXrecord
280
     1
102
RTVSPropertyOp0
 70
     1
102
RTVSPropertyOp1
 70
     1
102
RTVSPropertyOp2
 70
     1
102
RTVSPropertyOp3
 70
     1
102
RTVSPropertyOp4
 70
     1
102
RTVSPropertyOp5
 70
     1
102
RTVSPropertyOp6
 70
     1
102
RTVSPropertyOp7
 70
     1
102
RTVSPropertyOp8
 70
     1
102
RTVSPropertyOp9
 70
     1
102
RTVSPropertyOp10
 70
     1
102
RTVSPropertyOp11
 70
     1
102
RTVSPropertyOp12
 70
     1
102
RTVSPropertyOp13
 70
     1
102
RTVSPropertyOp14
 70
     1
102
RTVSPropertyOp15
 70
     1
102
RTVSPropertyOp16
 70
     1
102
RTVSPropertyOp17
 70
     1
102
RTVSPropertyOp18
 70
     1
102
RTVSPropertyOp19
 70
     1
102
RTVSPropertyOp20
 70
     1
102
RTVSPropertyOp21
 70
     1
102
RTVSPropertyOp22
 70
     1
102
RTVSPropertyOp23
 70
     1
102
RTVSPropertyOp24
 70
     1
102
RTVSPropertyOp25
 70
     1
102
RTVSPropertyOp26
 70
     1
102
RTVSPropertyOp27
 70
     1
102
RTVSPropertyOp28
 70
     1
102
RTVSPropertyOp29
 70
     1
102
RTVSPropertyOp30
 70
     1
102
RTVSPropertyOp31
 70
     1
102
RTVSPropertyOp32
 70
     1
102
RTVSPropertyOp33
 70
     1
102
RTVSPropertyOp34
 70
     1
102
RTVSPropertyOp35
 70
     1
102
RTVSPropertyOp36
 70
     1
102
RTVSPropertyOp37
 70
     1
102
RTVSPropertyOp38
 70
     1
102
RTVSPropertyOp39
 70
     1
102
RTVSPropertyOp40
 70
     1
102
RTVSPropertyOp41
 70
     1
102
RTVSPropertyOp42
 70
     1
102
RTVSPropertyOp43
 70
     1
102
RTVSPropertyOp44
 70
     1
102
RTVSPropertyOp45
 70
     1
102
RTVSPropertyOp46
 70
     1
102
RTVSPropertyOp47
 70
     1
102
RTVSPropertyOp48
 70
     1
102
RTVSPropertyOp49
 70
     1
102
RTVSPropertyOp50
 70
     1
102
RTVSPropertyOp51
 70
     0
102
RTVSPropertyOp52
 70
     0
102
RTVSPropertyOp53
 70
     1
102
RTVSPropertyOp54
 70
     1
102
RTVSPropertyOp55
 70
     1
102
RTVSPropertyOp56
 70
     1
102
RTVSPropertyOp57
 70
     1
102
RTVSPost2010Prop28
280
     0
102
RTVSPost2010PropOp28
 70
     1
102
RTVSPost2010Prop29
280
     1
102
RTVSPost2010PropOp29
 70
     1
102
RTVSPost2010Prop30
280
     1
102
RTVSPost2010PropOp30
 70
     1
102
RTVSPost2010Prop31
280
     0
102
RTVSPost2010PropOp31
 70
     1
102
RTVSPost2010Prop32
280
     0
102
RTVSPost2010PropOp32
 70
     1
102
RTVSPost2010Prop33
280
     0
102
RTVSPost2010PropOp33
 70
     1
102
RTVSPost2010Prop34
280
     0
102
RTVSPost2010PropOp34
 70
     1
102
RTVSPost2010Prop35
280
     0
102
RTVSPost2010PropOp35
 70
     1
102
RTVSPost2010Prop36
280
     0
102
RTVSPost2010PropOp36
 70
     1
102
RTVSPost2010Prop37
 90
       50
102
RTVSPost2010PropOp37
 70
     1
102
RTVSPost2010Prop38
140
0.0
102
RTVSPost2010PropOp38
 70
     1
102
RTVSPost2010Prop39
140
1.0
102
RTVSPost2010PropOp39
 70
     1
102
RTVSPost2010Prop40
 90
        0
102
RTVSPost2010PropOp40
 70
     1
102
RTVSPost2010Prop41ColorIndex
 90
       18
102
RTVSPost2010Prop41ColorRGB
 90
        0
102
RTVSPost2010PropOp41
 70
     1
102
RTVSPost2010Prop42
 90
       50
102
RTVSPost2010PropOp42
 70
     1
102
RTVSPost2010Prop43
 90
        3
102
RTVSPost2010PropOp43
 70
     1
102
RTVSPost2010Prop44ColorIndex
 90
        5
102
RTVSPost2010Prop44ColorRGB
 90
      255
102
RTVSPost2010PropOp44
 70
     1
102
RTVSPost2010Prop45
280
     0
102
RTVSPost2010PropOp45
 70
     1
102
RTVSPost2010Prop46
 90
       50
102
RTVSPost2010PropOp46
 70
     1
102
RTVSPost2010Prop47
 90
       50
102
RTVSPost2010PropOp47
 70
     1
102
RTVSPost2010Prop48
 90
       50
102
RTVSPost2010PropOp48
 70
     1
102
RTVSPost2010Prop49
280
     0
102
RTVSPost2010PropOp49
 70
     1
102
RTVSPost2010Prop50
 90
       50
102
RTVSPost2010PropOp50
 70
     1
102
RTVSPost2010Prop51ColorIndex
 90
      256
102
RTVSPost2010Prop51ColorRGB
 90
-16777216
102
RTVSPost2010PropOp51
 70
     0
102
RTVSPost2010Prop52
140
1.0
102
RTVSPost2010PropOp52
 70
     0
102
RTVSPost2010Prop53
 90
        2
102
RTVSPost2010PropOp53
 70
     1
102
RTVSPost2010Prop54
  1
strokes_ogs.tif
102
RTVSPost2010PropOp54
 70
     1
102
RTVSPost2010Prop55
280
     0
102
RTVSPost2010PropOp55
 70
     1
102
RTVSPost2010Prop56
140
1.0
102
RTVSPost2010PropOp56
 70
     1
102
RTVSPost2010Prop57
140
1.0
102
RTVSPost2010PropOp57
 70
     1
  0
XRECORD
  5
3D3
102
{ACAD_REACTORS
330
3D2
102
}
330
3D2
100
AcDbXrecord
280
     1
102
RTVSPropertyOp0
 70
     0
102
RTVSPropertyOp1
 70
     0
102
RTVSPropertyOp2
 70
     0
102
RTVSPropertyOp3
 70
     0
102
RTVSPropertyOp4
 70
     0
102
RTVSPropertyOp5
 70
     0
102
RTVSPropertyOp6
 70
     0
102
RTVSPropertyOp7
 70
     0
102
RTVSPropertyOp8
 70
     0
102
RTVSPropertyOp9
 70
     0
102
RTVSPropertyOp10
 70
     0
102
RTVSPropertyOp11
 70
     0
102
RTVSPropertyOp12
 70
     0
102
RTVSPropertyOp13
 70
     0
102
RTVSPropertyOp14
 70
     2
102
RTVSPropertyOp15
 70
     0
102
RTVSPropertyOp16
 70
     0
102
RTVSPropertyOp17
 70
     0
102
RTVSPropertyOp18
 70
     0
102
RTVSPropertyOp19
 70
     0
102
RTVSPropertyOp20
 70
     0
102
RTVSPropertyOp21
 70
     0
102
RTVSPropertyOp22
 70
     0
102
RTVSPropertyOp23
 70
     0
102
RTVSPropertyOp24
 70
     0
102
RTVSPropertyOp25
 70
     0
102
RTVSPropertyOp26
 70
     0
102
RTVSPropertyOp27
 70
     0
102
RTVSPropertyOp28
 70
     0
102
RTVSPropertyOp29
 70
     0
102
RTVSPropertyOp30
 70
     0
102
RTVSPropertyOp31
 70
     0
102
RTVSPropertyOp32
 70
     0
102
RTVSPropertyOp33
 70
     0
102
RTVSPropertyOp34
 70
     0
102
RTVSPropertyOp35
 70
     0
102
RTVSPropertyOp36
 70
     0
102
RTVSPropertyOp37
 70
     0
102
RTVSPropertyOp38
 70
     0
102
RTVSPropertyOp39
 70
     0
102
RTVSPropertyOp40
 70
     0
102
RTVSPropertyOp41
 70
     0
102
RTVSPropertyOp42
 70
     0
102
RTVSPropertyOp43
 70
     0
102
RTVSPropertyOp44
 70
     0
102
RTVSPropertyOp45
 70
     0
102
RTVSPropertyOp46
 70
     0
102
RTVSPropertyOp47
 70
     0
102
RTVSPropertyOp48
 70
     0
102
RTVSPropertyOp49
 70
     0
102
RTVSPropertyOp50
 70
     0
102
RTVSPropertyOp51
 70
     0
102
RTVSPropertyOp52
 70
     0
102
RTVSPropertyOp53
 70
     0
102
RTVSPropertyOp54
 70
     0
102
RTVSPropertyOp55
 70
     0
102
RTVSPropertyOp56
 70
     0
102
RTVSPropertyOp57
 70
     0
102
RTVSPost2010Prop28
280
     0
102
RTVSPost2010PropOp28
 70
     0
102
RTVSPost2010Prop29
280
     1
102
RTVSPost2010PropOp29
 70
     0
102
RTVSPost2010Prop30
280
     1
102
RTVSPost2010PropOp30
 70
     0
102
RTVSPost2010Prop31
280
     0
102
RTVSPost2010PropOp31
 70
     0
102
RTVSPost2010Prop32
280
     0
102
RTVSPost2010PropOp32
 70
     0
102
RTVSPost2010Prop33
280
     0
102
RTVSPost2010PropOp33
 70
     0
102
RTVSPost2010Prop34
280
     0
102
RTVSPost2010PropOp34
 70
     0
102
RTVSPost2010Prop35
280
     0
102
RTVSPost2010PropOp35
 70
     0
102
RTVSPost2010Prop36
280
     0
102
RTVSPost2010PropOp36
 70
     0
102
RTVSPost2010Prop37
 90
       50
102
RTVSPost2010PropOp37
 70
     0
102
RTVSPost2010Prop38
140
0.0
102
RTVSPost2010PropOp38
 70
     0
102
RTVSPost2010Prop39
140
1.0
102
RTVSPost2010PropOp39
 70
     0
102
RTVSPost2010Prop40
 90
        0
102
RTVSPost2010PropOp40
 70
     0
102
RTVSPost2010Prop41ColorIndex
 90
       18
102
RTVSPost2010Prop41ColorRGB
 90
        0
102
RTVSPost2010PropOp41
 70
     0
102
RTVSPost2010Prop42
 90
       50
102
RTVSPost2010PropOp42
 70
     0
102
RTVSPost2010Prop43
 90
        3
102
RTVSPost2010PropOp43
 70
     0
102
RTVSPost2010Prop44ColorIndex
 90
        5
102
RTVSPost2010Prop44ColorRGB
 90
      255
102
RTVSPost2010PropOp44
 70
     0
102
RTVSPost2010Prop45
280
     0
102
RTVSPost2010PropOp45
 70
     0
102
RTVSPost2010Prop46
 90
       50
102
RTVSPost2010PropOp46
 70
     0
102
RTVSPost2010Prop47
 90
       50
102
RTVSPost2010PropOp47
 70
     0
102
RTVSPost2010Prop48
 90
       50
102
RTVSPost2010PropOp48
 70
     0
102
RTVSPost2010Prop49
280
     0
102
RTVSPost2010PropOp49
 70
     0
102
RTVSPost2010Prop50
 90
       50
102
RTVSPost2010PropOp50
 70
     0
102
RTVSPost2010Prop51ColorIndex
 90
      256
102
RTVSPost2010Prop51ColorRGB
 90
-16777216
102
RTVSPost2010PropOp51
 70
     0
102
RTVSPost2010Prop52
140
1.0
102
RTVSPost2010PropOp52
 70
     0
102
RTVSPost2010Prop53
 90
        2
102
RTVSPost2010PropOp53
 70
     0
102
RTVSPost2010Prop54
  1
strokes_ogs.tif
102
RTVSPost2010PropOp54
 70
     0
102
RTVSPost2010Prop55
280
     0
102
RTVSPost2010PropOp55
 70
     0
102
RTVSPost2010Prop56
140
1.0
102
RTVSPost2010PropOp56
 70
     0
102
RTVSPost2010Prop57
140
1.0
102
RTVSPost2010PropOp57
 70
     0
  0
XRECORD
  5
3CB
102
{ACAD_REACTORS
330
3CA
102
}
330
3CA
100
AcDbXrecord
280
     1
102
RTVSPropertyOp0
 70
     1
102
RTVSPropertyOp1
 70
     1
102
RTVSPropertyOp2
 70
     1
102
RTVSPropertyOp3
 70
     1
102
RTVSPropertyOp4
 70
     1
102
RTVSPropertyOp5
 70
     1
102
RTVSPropertyOp6
 70
     1
102
RTVSPropertyOp7
 70
     1
102
RTVSPropertyOp8
 70
     1
102
RTVSPropertyOp9
 70
     1
102
RTVSPropertyOp10
 70
     1
102
RTVSPropertyOp11
 70
     1
102
RTVSPropertyOp12
 70
     1
102
RTVSPropertyOp13
 70
     1
102
RTVSPropertyOp14
 70
     1
102
RTVSPropertyOp15
 70
     1
102
RTVSPropertyOp16
 70
     1
102
RTVSPropertyOp17
 70
     1
102
RTVSPropertyOp18
 70
     1
102
RTVSPropertyOp19
 70
     1
102
RTVSPropertyOp20
 70
     1
102
RTVSPropertyOp21
 70
     1
102
RTVSPropertyOp22
 70
     1
102
RTVSPropertyOp23
 70
     1
102
RTVSPropertyOp24
 70
     1
102
RTVSPropertyOp25
 70
     1
102
RTVSPropertyOp26
 70
     1
102
RTVSPropertyOp27
 70
     1
102
RTVSPropertyOp28
 70
     1
102
RTVSPropertyOp29
 70
     1
102
RTVSPropertyOp30
 70
     1
102
RTVSPropertyOp31
 70
     1
102
RTVSPropertyOp32
 70
     1
102
RTVSPropertyOp33
 70
     1
102
RTVSPropertyOp34
 70
     1
102
RTVSPropertyOp35
 70
     1
102
RTVSPropertyOp36
 70
     1
102
RTVSPropertyOp37
 70
     1
102
RTVSPropertyOp38
 70
     1
102
RTVSPropertyOp39
 70
     1
102
RTVSPropertyOp40
 70
     1
102
RTVSPropertyOp41
 70
     1
102
RTVSPropertyOp42
 70
     1
102
RTVSPropertyOp43
 70
     1
102
RTVSPropertyOp44
 70
     1
102
RTVSPropertyOp45
 70
     1
102
RTVSPropertyOp46
 70
     1
102
RTVSPropertyOp47
 70
     1
102
RTVSPropertyOp48
 70
     1
102
RTVSPropertyOp49
 70
     1
102
RTVSPropertyOp50
 70
     1
102
RTVSPropertyOp51
 70
     0
102
RTVSPropertyOp52
 70
     0
102
RTVSPropertyOp53
 70
     1
102
RTVSPropertyOp54
 70
     1
102
RTVSPropertyOp55
 70
     1
102
RTVSPropertyOp56
 70
     1
102
RTVSPropertyOp57
 70
     1
102
RTVSPost2010Prop28
280
     0
102
RTVSPost2010PropOp28
 70
     1
102
RTVSPost2010Prop29
280
     1
102
RTVSPost2010PropOp29
 70
     1
102
RTVSPost2010Prop30
280
     1
102
RTVSPost2010PropOp30
 70
     1
102
RTVSPost2010Prop31
280
     0
102
RTVSPost2010PropOp31
 70
     1
102
RTVSPost2010Prop32
280
     0
102
RTVSPost2010PropOp32
 70
     1
102
RTVSPost2010Prop33
280
     0
102
RTVSPost2010PropOp33
 70
     1
102
RTVSPost2010Prop34
280
     0
102
RTVSPost2010PropOp34
 70
     1
102
RTVSPost2010Prop35
280
     0
102
RTVSPost2010PropOp35
 70
     1
102
RTVSPost2010Prop36
280
     0
102
RTVSPost2010PropOp36
 70
     1
102
RTVSPost2010Prop37
 90
       50
102
RTVSPost2010PropOp37
 70
     1
102
RTVSPost2010Prop38
140
0.0
102
RTVSPost2010PropOp38
 70
     1
102
RTVSPost2010Prop39
140
1.0
102
RTVSPost2010PropOp39
 70
     1
102
RTVSPost2010Prop40
 90
        0
102
RTVSPost2010PropOp40
 70
     1
102
RTVSPost2010Prop41ColorIndex
 90
       18
102
RTVSPost2010Prop41ColorRGB
 90
        0
102
RTVSPost2010PropOp41
 70
     1
102
RTVSPost2010Prop42
 90
       50
102
RTVSPost2010PropOp42
 70
     1
102
RTVSPost2010Prop43
 90
        3
102
RTVSPost2010PropOp43
 70
     1
102
RTVSPost2010Prop44ColorIndex
 90
        5
102
RTVSPost2010Prop44ColorRGB
 90
      255
102
RTVSPost2010PropOp44
 70
     1
102
RTVSPost2010Prop45
280
     0
102
RTVSPost2010PropOp45
 70
     1
102
RTVSPost2010Prop46
 90
       50
102
RTVSPost2010PropOp46
 70
     1
102
RTVSPost2010Prop47
 90
       50
102
RTVSPost2010PropOp47
 70
     1
102
RTVSPost2010Prop48
 90
       50
102
RTVSPost2010PropOp48
 70
     1
102
RTVSPost2010Prop49
280
     0
102
RTVSPost2010PropOp49
 70
     1
102
RTVSPost2010Prop50
 90
       50
102
RTVSPost2010PropOp50
 70
     1
102
RTVSPost2010Prop51ColorIndex
 90
      256
102
RTVSPost2010Prop51ColorRGB
 90
-16777216
102
RTVSPost2010PropOp51
 70
     0
102
RTVSPost2010Prop52
140
1.0
102
RTVSPost2010PropOp52
 70
     0
102
RTVSPost2010Prop53
 90
        2
102
RTVSPost2010PropOp53
 70
     1
102
RTVSPost2010Prop54
  1
strokes_ogs.tif
102
RTVSPost2010PropOp54
 70
     1
102
RTVSPost2010Prop55
280
     0
102
RTVSPost2010PropOp55
 70
     1
102
RTVSPost2010Prop56
140
1.0
102
RTVSPost2010PropOp56
 70
     1
102
RTVSPost2010Prop57
140
1.0
102
RTVSPost2010PropOp57
 70
     1
  0
XRECORD
  5
3AF
102
{ACAD_REACTORS
330
3AE
102
}
330
3AE
100
AcDbXrecord
280
     1
102
RTVSPropertyOp0
 70
     1
102
RTVSPropertyOp1
 70
     1
102
RTVSPropertyOp2
 70
     1
102
RTVSPropertyOp3
 70
     1
102
RTVSPropertyOp4
 70
     1
102
RTVSPropertyOp5
 70
     1
102
RTVSPropertyOp6
 70
     1
102
RTVSPropertyOp7
 70
     1
102
RTVSPropertyOp8
 70
     1
102
RTVSPropertyOp9
 70
     1
102
RTVSPropertyOp10
 70
     1
102
RTVSPropertyOp11
 70
     1
102
RTVSPropertyOp12
 70
     1
102
RTVSPropertyOp13
 70
     1
102
RTVSPropertyOp14
 70
     1
102
RTVSPropertyOp15
 70
     1
102
RTVSPropertyOp16
 70
     1
102
RTVSPropertyOp17
 70
     1
102
RTVSPropertyOp18
 70
     1
102
RTVSPropertyOp19
 70
     1
102
RTVSPropertyOp20
 70
     1
102
RTVSPropertyOp21
 70
     1
102
RTVSPropertyOp22
 70
     1
102
RTVSPropertyOp23
 70
     1
102
RTVSPropertyOp24
 70
     1
102
RTVSPropertyOp25
 70
     1
102
RTVSPropertyOp26
 70
     1
102
RTVSPropertyOp27
 70
     1
102
RTVSPropertyOp28
 70
     1
102
RTVSPropertyOp29
 70
     1
102
RTVSPropertyOp30
 70
     1
102
RTVSPropertyOp31
 70
     1
102
RTVSPropertyOp32
 70
     1
102
RTVSPropertyOp33
 70
     1
102
RTVSPropertyOp34
 70
     1
102
RTVSPropertyOp35
 70
     1
102
RTVSPropertyOp36
 70
     1
102
RTVSPropertyOp37
 70
     1
102
RTVSPropertyOp38
 70
     1
102
RTVSPropertyOp39
 70
     1
102
RTVSPropertyOp40
 70
     1
102
RTVSPropertyOp41
 70
     1
102
RTVSPropertyOp42
 70
     1
102
RTVSPropertyOp43
 70
     1
102
RTVSPropertyOp44
 70
     1
102
RTVSPropertyOp45
 70
     1
102
RTVSPropertyOp46
 70
     1
102
RTVSPropertyOp47
 70
     1
102
RTVSPropertyOp48
 70
     1
102
RTVSPropertyOp49
 70
     1
102
RTVSPropertyOp50
 70
     1
102
RTVSPropertyOp51
 70
     0
102
RTVSPropertyOp52
 70
     0
102
RTVSPropertyOp53
 70
     1
102
RTVSPropertyOp54
 70
     1
102
RTVSPropertyOp55
 70
     1
102
RTVSPropertyOp56
 70
     1
102
RTVSPropertyOp57
 70
     1
102
RTVSPost2010Prop28
280
     0
102
RTVSPost2010PropOp28
 70
     1
102
RTVSPost2010Prop29
280
     1
102
RTVSPost2010PropOp29
 70
     1
102
RTVSPost2010Prop30
280
     1
102
RTVSPost2010PropOp30
 70
     1
102
RTVSPost2010Prop31
280
     0
102
RTVSPost2010PropOp31
 70
     1
102
RTVSPost2010Prop32
280
     0
102
RTVSPost2010PropOp32
 70
     1
102
RTVSPost2010Prop33
280
     0
102
RTVSPost2010PropOp33
 70
     1
102
RTVSPost2010Prop34
280
     0
102
RTVSPost2010PropOp34
 70
     1
102
RTVSPost2010Prop35
280
     0
102
RTVSPost2010PropOp35
 70
     1
102
RTVSPost2010Prop36
280
     0
102
RTVSPost2010PropOp36
 70
     1
102
RTVSPost2010Prop37
 90
       50
102
RTVSPost2010PropOp37
 70
     1
102
RTVSPost2010Prop38
140
0.0
102
RTVSPost2010PropOp38
 70
     1
102
RTVSPost2010Prop39
140
1.0
102
RTVSPost2010PropOp39
 70
     1
102
RTVSPost2010Prop40
 90
        0
102
RTVSPost2010PropOp40
 70
     1
102
RTVSPost2010Prop41ColorIndex
 90
       18
102
RTVSPost2010Prop41ColorRGB
 90
        0
102
RTVSPost2010PropOp41
 70
     1
102
RTVSPost2010Prop42
 90
       50
102
RTVSPost2010PropOp42
 70
     1
102
RTVSPost2010Prop43
 90
        3
102
RTVSPost2010PropOp43
 70
     1
102
RTVSPost2010Prop44ColorIndex
 90
        5
102
RTVSPost2010Prop44ColorRGB
 90
      255
102
RTVSPost2010PropOp44
 70
     1
102
RTVSPost2010Prop45
280
     0
102
RTVSPost2010PropOp45
 70
     1
102
RTVSPost2010Prop46
 90
       50
102
RTVSPost2010PropOp46
 70
     1
102
RTVSPost2010Prop47
 90
       50
102
RTVSPost2010PropOp47
 70
     1
102
RTVSPost2010Prop48
 90
       50
102
RTVSPost2010PropOp48
 70
     1
102
RTVSPost2010Prop49
280
     0
102
RTVSPost2010PropOp49
 70
     1
102
RTVSPost2010Prop50
 90
       50
102
RTVSPost2010PropOp50
 70
     1
102
RTVSPost2010Prop51ColorIndex
 90
      256
102
RTVSPost2010Prop51ColorRGB
 90
-16777216
102
RTVSPost2010PropOp51
 70
     0
102
RTVSPost2010Prop52
140
1.0
102
RTVSPost2010PropOp52
 70
     0
102
RTVSPost2010Prop53
 90
        2
102
RTVSPost2010PropOp53
 70
     1
102
RTVSPost2010Prop54
  1
strokes_ogs.tif
102
RTVSPost2010PropOp54
 70
     1
102
RTVSPost2010Prop55
280
     0
102
RTVSPost2010PropOp55
 70
     1
102
RTVSPost2010Prop56
140
1.0
102
RTVSPost2010PropOp56
 70
     1
102
RTVSPost2010Prop57
140
1.0
102
RTVSPost2010PropOp57
 70
     1
  0
XRECORD
  5
3B1
102
{ACAD_REACTORS
330
3B0
102
}
330
3B0
100
AcDbXrecord
280
     1
102
RTVSPropertyOp0
 70
     1
102
RTVSPropertyOp1
 70
     1
102
RTVSPropertyOp2
 70
     1
102
RTVSPropertyOp3
 70
     1
102
RTVSPropertyOp4
 70
     1
102
RTVSPropertyOp5
 70
     1
102
RTVSPropertyOp6
 70
     1
102
RTVSPropertyOp7
 70
     1
102
RTVSPropertyOp8
 70
     1
102
RTVSPropertyOp9
 70
     1
102
RTVSPropertyOp10
 70
     1
102
RTVSPropertyOp11
 70
     1
102
RTVSPropertyOp12
 70
     1
102
RTVSPropertyOp13
 70
     1
102
RTVSPropertyOp14
 70
     1
102
RTVSPropertyOp15
 70
     1
102
RTVSPropertyOp16
 70
     1
102
RTVSPropertyOp17
 70
     1
102
RTVSPropertyOp18
 70
     1
102
RTVSPropertyOp19
 70
     1
102
RTVSPropertyOp20
 70
     1
102
RTVSPropertyOp21
 70
     1
102
RTVSPropertyOp22
 70
     1
102
RTVSPropertyOp23
 70
     1
102
RTVSPropertyOp24
 70
     1
102
RTVSPropertyOp25
 70
     1
102
RTVSPropertyOp26
 70
     1
102
RTVSPropertyOp27
 70
     1
102
RTVSPropertyOp28
 70
     1
102
RTVSPropertyOp29
 70
     1
102
RTVSPropertyOp30
 70
     1
102
RTVSPropertyOp31
 70
     1
102
RTVSPropertyOp32
 70
     1
102
RTVSPropertyOp33
 70
     1
102
RTVSPropertyOp34
 70
     1
102
RTVSPropertyOp35
 70
     1
102
RTVSPropertyOp36
 70
     1
102
RTVSPropertyOp37
 70
     1
102
RTVSPropertyOp38
 70
     1
102
RTVSPropertyOp39
 70
     1
102
RTVSPropertyOp40
 70
     1
102
RTVSPropertyOp41
 70
     1
102
RTVSPropertyOp42
 70
     1
102
RTVSPropertyOp43
 70
     1
102
RTVSPropertyOp44
 70
     1
102
RTVSPropertyOp45
 70
     1
102
RTVSPropertyOp46
 70
     1
102
RTVSPropertyOp47
 70
     1
102
RTVSPropertyOp48
 70
     1
102
RTVSPropertyOp49
 70
     1
102
RTVSPropertyOp50
 70
     1
102
RTVSPropertyOp51
 70
     0
102
RTVSPropertyOp52
 70
     0
102
RTVSPropertyOp53
 70
     1
102
RTVSPropertyOp54
 70
     1
102
RTVSPropertyOp55
 70
     1
102
RTVSPropertyOp56
 70
     1
102
RTVSPropertyOp57
 70
     1
102
RTVSPost2010Prop28
280
     0
102
RTVSPost2010PropOp28
 70
     1
102
RTVSPost2010Prop29
280
     1
102
RTVSPost2010PropOp29
 70
     1
102
RTVSPost2010Prop30
280
     1
102
RTVSPost2010PropOp30
 70
     1
102
RTVSPost2010Prop31
280
     0
102
RTVSPost2010PropOp31
 70
     1
102
RTVSPost2010Prop32
280
     0
102
RTVSPost2010PropOp32
 70
     1
102
RTVSPost2010Prop33
280
     0
102
RTVSPost2010PropOp33
 70
     1
102
RTVSPost2010Prop34
280
     0
102
RTVSPost2010PropOp34
 70
     1
102
RTVSPost2010Prop35
280
     0
102
RTVSPost2010PropOp35
 70
     1
102
RTVSPost2010Prop36
280
     0
102
RTVSPost2010PropOp36
 70
     1
102
RTVSPost2010Prop37
 90
       50
102
RTVSPost2010PropOp37
 70
     1
102
RTVSPost2010Prop38
140
0.0
102
RTVSPost2010PropOp38
 70
     1
102
RTVSPost2010Prop39
140
1.0
102
RTVSPost2010PropOp39
 70
     1
102
RTVSPost2010Prop40
 90
        0
102
RTVSPost2010PropOp40
 70
     1
102
RTVSPost2010Prop41ColorIndex
 90
       18
102
RTVSPost2010Prop41ColorRGB
 90
        0
102
RTVSPost2010PropOp41
 70
     1
102
RTVSPost2010Prop42
 90
       50
102
RTVSPost2010PropOp42
 70
     1
102
RTVSPost2010Prop43
 90
        3
102
RTVSPost2010PropOp43
 70
     1
102
RTVSPost2010Prop44ColorIndex
 90
        5
102
RTVSPost2010Prop44ColorRGB
 90
      255
102
RTVSPost2010PropOp44
 70
     1
102
RTVSPost2010Prop45
280
     0
102
RTVSPost2010PropOp45
 70
     1
102
RTVSPost2010Prop46
 90
       50
102
RTVSPost2010PropOp46
 70
     1
102
RTVSPost2010Prop47
 90
       50
102
RTVSPost2010PropOp47
 70
     1
102
RTVSPost2010Prop48
 90
       50
102
RTVSPost2010PropOp48
 70
     1
102
RTVSPost2010Prop49
280
     0
102
RTVSPost2010PropOp49
 70
     1
102
RTVSPost2010Prop50
 90
       50
102
RTVSPost2010PropOp50
 70
     1
102
RTVSPost2010Prop51ColorIndex
 90
      256
102
RTVSPost2010Prop51ColorRGB
 90
-16777216
102
RTVSPost2010PropOp51
 70
     0
102
RTVSPost2010Prop52
140
1.0
102
RTVSPost2010PropOp52
 70
     0
102
RTVSPost2010Prop53
 90
        2
102
RTVSPost2010PropOp53
 70
     1
102
RTVSPost2010Prop54
  1
strokes_ogs.tif
102
RTVSPost2010PropOp54
 70
     1
102
RTVSPost2010Prop55
280
     0
102
RTVSPost2010PropOp55
 70
     1
102
RTVSPost2010Prop56
140
1.0
102
RTVSPost2010PropOp56
 70
     1
102
RTVSPost2010Prop57
140
1.0
102
RTVSPost2010PropOp57
 70
     1
  0
XRECORD
  5
3B3
102
{ACAD_REACTORS
330
3B2
102
}
330
3B2
100
AcDbXrecord
280
     1
102
RTVSPropertyOp0
 70
     1
102
RTVSPropertyOp1
 70
     1
102
RTVSPropertyOp2
 70
     1
102
RTVSPropertyOp3
 70
     1
102
RTVSPropertyOp4
 70
     1
102
RTVSPropertyOp5
 70
     1
102
RTVSPropertyOp6
 70
     1
102
RTVSPropertyOp7
 70
     1
102
RTVSPropertyOp8
 70
     1
102
RTVSPropertyOp9
 70
     1
102
RTVSPropertyOp10
 70
     1
102
RTVSPropertyOp11
 70
     1
102
RTVSPropertyOp12
 70
     1
102
RTVSPropertyOp13
 70
     1
102
RTVSPropertyOp14
 70
     1
102
RTVSPropertyOp15
 70
     1
102
RTVSPropertyOp16
 70
     1
102
RTVSPropertyOp17
 70
     1
102
RTVSPropertyOp18
 70
     1
102
RTVSPropertyOp19
 70
     1
102
RTVSPropertyOp20
 70
     1
102
RTVSPropertyOp21
 70
     1
102
RTVSPropertyOp22
 70
     1
102
RTVSPropertyOp23
 70
     1
102
RTVSPropertyOp24
 70
     1
102
RTVSPropertyOp25
 70
     1
102
RTVSPropertyOp26
 70
     1
102
RTVSPropertyOp27
 70
     1
102
RTVSPropertyOp28
 70
     1
102
RTVSPropertyOp29
 70
     1
102
RTVSPropertyOp30
 70
     1
102
RTVSPropertyOp31
 70
     1
102
RTVSPropertyOp32
 70
     1
102
RTVSPropertyOp33
 70
     1
102
RTVSPropertyOp34
 70
     1
102
RTVSPropertyOp35
 70
     1
102
RTVSPropertyOp36
 70
     1
102
RTVSPropertyOp37
 70
     1
102
RTVSPropertyOp38
 70
     1
102
RTVSPropertyOp39
 70
     1
102
RTVSPropertyOp40
 70
     1
102
RTVSPropertyOp41
 70
     1
102
RTVSPropertyOp42
 70
     1
102
RTVSPropertyOp43
 70
     1
102
RTVSPropertyOp44
 70
     1
102
RTVSPropertyOp45
 70
     1
102
RTVSPropertyOp46
 70
     1
102
RTVSPropertyOp47
 70
     1
102
RTVSPropertyOp48
 70
     1
102
RTVSPropertyOp49
 70
     1
102
RTVSPropertyOp50
 70
     1
102
RTVSPropertyOp51
 70
     0
102
RTVSPropertyOp52
 70
     0
102
RTVSPropertyOp53
 70
     1
102
RTVSPropertyOp54
 70
     1
102
RTVSPropertyOp55
 70
     1
102
RTVSPropertyOp56
 70
     1
102
RTVSPropertyOp57
 70
     1
102
RTVSPost2010Prop28
280
     0
102
RTVSPost2010PropOp28
 70
     1
102
RTVSPost2010Prop29
280
     1
102
RTVSPost2010PropOp29
 70
     1
102
RTVSPost2010Prop30
280
     1
102
RTVSPost2010PropOp30
 70
     1
102
RTVSPost2010Prop31
280
     0
102
RTVSPost2010PropOp31
 70
     1
102
RTVSPost2010Prop32
280
     0
102
RTVSPost2010PropOp32
 70
     1
102
RTVSPost2010Prop33
280
     0
102
RTVSPost2010PropOp33
 70
     1
102
RTVSPost2010Prop34
280
     0
102
RTVSPost2010PropOp34
 70
     1
102
RTVSPost2010Prop35
280
     0
102
RTVSPost2010PropOp35
 70
     1
102
RTVSPost2010Prop36
280
     0
102
RTVSPost2010PropOp36
 70
     1
102
RTVSPost2010Prop37
 90
       50
102
RTVSPost2010PropOp37
 70
     1
102
RTVSPost2010Prop38
140
0.0
102
RTVSPost2010PropOp38
 70
     1
102
RTVSPost2010Prop39
140
1.0
102
RTVSPost2010PropOp39
 70
     1
102
RTVSPost2010Prop40
 90
        0
102
RTVSPost2010PropOp40
 70
     1
102
RTVSPost2010Prop41ColorIndex
 90
       18
102
RTVSPost2010Prop41ColorRGB
 90
        0
102
RTVSPost2010PropOp41
 70
     1
102
RTVSPost2010Prop42
 90
       50
102
RTVSPost2010PropOp42
 70
     1
102
RTVSPost2010Prop43
 90
        3
102
RTVSPost2010PropOp43
 70
     1
102
RTVSPost2010Prop44ColorIndex
 90
        5
102
RTVSPost2010Prop44ColorRGB
 90
      255
102
RTVSPost2010PropOp44
 70
     1
102
RTVSPost2010Prop45
280
     0
102
RTVSPost2010PropOp45
 70
     1
102
RTVSPost2010Prop46
 90
       50
102
RTVSPost2010PropOp46
 70
     1
102
RTVSPost2010Prop47
 90
       50
102
RTVSPost2010PropOp47
 70
     1
102
RTVSPost2010Prop48
 90
       50
102
RTVSPost2010PropOp48
 70
     1
102
RTVSPost2010Prop49
280
     0
102
RTVSPost2010PropOp49
 70
     1
102
RTVSPost2010Prop50
 90
       50
102
RTVSPost2010PropOp50
 70
     1
102
RTVSPost2010Prop51ColorIndex
 90
      256
102
RTVSPost2010Prop51ColorRGB
 90
-16777216
102
RTVSPost2010PropOp51
 70
     0
102
RTVSPost2010Prop52
140
1.0
102
RTVSPost2010PropOp52
 70
     0
102
RTVSPost2010Prop53
 90
        2
102
RTVSPost2010PropOp53
 70
     1
102
RTVSPost2010Prop54
  1
strokes_ogs.tif
102
RTVSPost2010PropOp54
 70
     1
102
RTVSPost2010Prop55
280
     0
102
RTVSPost2010PropOp55
 70
     1
102
RTVSPost2010Prop56
140
1.0
102
RTVSPost2010PropOp56
 70
     1
102
RTVSPost2010Prop57
140
1.0
102
RTVSPost2010PropOp57
 70
     1
  0
XRECORD
  5
3B5
102
{ACAD_REACTORS
330
3B4
102
}
330
3B4
100
AcDbXrecord
280
     1
102
RTVSPropertyOp0
 70
     1
102
RTVSPropertyOp1
 70
     1
102
RTVSPropertyOp2
 70
     1
102
RTVSPropertyOp3
 70
     1
102
RTVSPropertyOp4
 70
     1
102
RTVSPropertyOp5
 70
     1
102
RTVSPropertyOp6
 70
     1
102
RTVSPropertyOp7
 70
     1
102
RTVSPropertyOp8
 70
     1
102
RTVSPropertyOp9
 70
     1
102
RTVSPropertyOp10
 70
     1
102
RTVSPropertyOp11
 70
     1
102
RTVSPropertyOp12
 70
     1
102
RTVSPropertyOp13
 70
     1
102
RTVSPropertyOp14
 70
     1
102
RTVSPropertyOp15
 70
     1
102
RTVSPropertyOp16
 70
     1
102
RTVSPropertyOp17
 70
     1
102
RTVSPropertyOp18
 70
     1
102
RTVSPropertyOp19
 70
     1
102
RTVSPropertyOp20
 70
     1
102
RTVSPropertyOp21
 70
     1
102
RTVSPropertyOp22
 70
     1
102
RTVSPropertyOp23
 70
     1
102
RTVSPropertyOp24
 70
     1
102
RTVSPropertyOp25
 70
     1
102
RTVSPropertyOp26
 70
     1
102
RTVSPropertyOp27
 70
     1
102
RTVSPropertyOp28
 70
     1
102
RTVSPropertyOp29
 70
     1
102
RTVSPropertyOp30
 70
     1
102
RTVSPropertyOp31
 70
     1
102
RTVSPropertyOp32
 70
     1
102
RTVSPropertyOp33
 70
     1
102
RTVSPropertyOp34
 70
     1
102
RTVSPropertyOp35
 70
     1
102
RTVSPropertyOp36
 70
     1
102
RTVSPropertyOp37
 70
     1
102
RTVSPropertyOp38
 70
     1
102
RTVSPropertyOp39
 70
     1
102
RTVSPropertyOp40
 70
     1
102
RTVSPropertyOp41
 70
     1
102
RTVSPropertyOp42
 70
     1
102
RTVSPropertyOp43
 70
     1
102
RTVSPropertyOp44
 70
     1
102
RTVSPropertyOp45
 70
     1
102
RTVSPropertyOp46
 70
     1
102
RTVSPropertyOp47
 70
     1
102
RTVSPropertyOp48
 70
     1
102
RTVSPropertyOp49
 70
     1
102
RTVSPropertyOp50
 70
     1
102
RTVSPropertyOp51
 70
     0
102
RTVSPropertyOp52
 70
     0
102
RTVSPropertyOp53
 70
     1
102
RTVSPropertyOp54
 70
     1
102
RTVSPropertyOp55
 70
     1
102
RTVSPropertyOp56
 70
     1
102
RTVSPropertyOp57
 70
     1
102
RTVSPost2010Prop28
280
     0
102
RTVSPost2010PropOp28
 70
     1
102
RTVSPost2010Prop29
280
     1
102
RTVSPost2010PropOp29
 70
     1
102
RTVSPost2010Prop30
280
     1
102
RTVSPost2010PropOp30
 70
     1
102
RTVSPost2010Prop31
280
     0
102
RTVSPost2010PropOp31
 70
     1
102
RTVSPost2010Prop32
280
     0
102
RTVSPost2010PropOp32
 70
     1
102
RTVSPost2010Prop33
280
     0
102
RTVSPost2010PropOp33
 70
     1
102
RTVSPost2010Prop34
280
     0
102
RTVSPost2010PropOp34
 70
     1
102
RTVSPost2010Prop35
280
     0
102
RTVSPost2010PropOp35
 70
     1
102
RTVSPost2010Prop36
280
     0
102
RTVSPost2010PropOp36
 70
     1
102
RTVSPost2010Prop37
 90
       50
102
RTVSPost2010PropOp37
 70
     1
102
RTVSPost2010Prop38
140
0.0
102
RTVSPost2010PropOp38
 70
     1
102
RTVSPost2010Prop39
140
1.0
102
RTVSPost2010PropOp39
 70
     1
102
RTVSPost2010Prop40
 90
        0
102
RTVSPost2010PropOp40
 70
     1
102
RTVSPost2010Prop41ColorIndex
 90
       18
102
RTVSPost2010Prop41ColorRGB
 90
        0
102
RTVSPost2010PropOp41
 70
     1
102
RTVSPost2010Prop42
 90
       50
102
RTVSPost2010PropOp42
 70
     1
102
RTVSPost2010Prop43
 90
        3
102
RTVSPost2010PropOp43
 70
     1
102
RTVSPost2010Prop44ColorIndex
 90
        5
102
RTVSPost2010Prop44ColorRGB
 90
      255
102
RTVSPost2010PropOp44
 70
     1
102
RTVSPost2010Prop45
280
     0
102
RTVSPost2010PropOp45
 70
     1
102
RTVSPost2010Prop46
 90
       50
102
RTVSPost2010PropOp46
 70
     1
102
RTVSPost2010Prop47
 90
       50
102
RTVSPost2010PropOp47
 70
     1
102
RTVSPost2010Prop48
 90
       50
102
RTVSPost2010PropOp48
 70
     1
102
RTVSPost2010Prop49
280
     0
102
RTVSPost2010PropOp49
 70
     1
102
RTVSPost2010Prop50
 90
       50
102
RTVSPost2010PropOp50
 70
     1
102
RTVSPost2010Prop51ColorIndex
 90
      256
102
RTVSPost2010Prop51ColorRGB
 90
-16777216
102
RTVSPost2010PropOp51
 70
     0
102
RTVSPost2010Prop52
140
1.0
102
RTVSPost2010PropOp52
 70
     0
102
RTVSPost2010Prop53
 90
        2
102
RTVSPost2010PropOp53
 70
     1
102
RTVSPost2010Prop54
  1
strokes_ogs.tif
102
RTVSPost2010PropOp54
 70
     1
102
RTVSPost2010Prop55
280
     0
102
RTVSPost2010PropOp55
 70
     1
102
RTVSPost2010Prop56
140
1.0
102
RTVSPost2010PropOp56
 70
     1
102
RTVSPost2010Prop57
140
1.0
102
RTVSPost2010PropOp57
 70
     1
  0
XRECORD
  5
3BB
102
{ACAD_REACTORS
330
3BA
102
}
330
3BA
100
AcDbXrecord
280
     1
102
RTVSPropertyOp0
 70
     1
102
RTVSPropertyOp1
 70
     1
102
RTVSPropertyOp2
 70
     1
102
RTVSPropertyOp3
 70
     1
102
RTVSPropertyOp4
 70
     1
102
RTVSPropertyOp5
 70
     1
102
RTVSPropertyOp6
 70
     1
102
RTVSPropertyOp7
 70
     1
102
RTVSPropertyOp8
 70
     1
102
RTVSPropertyOp9
 70
     1
102
RTVSPropertyOp10
 70
     1
102
RTVSPropertyOp11
 70
     1
102
RTVSPropertyOp12
 70
     1
102
RTVSPropertyOp13
 70
     1
102
RTVSPropertyOp14
 70
     1
102
RTVSPropertyOp15
 70
     1
102
RTVSPropertyOp16
 70
     1
102
RTVSPropertyOp17
 70
     1
102
RTVSPropertyOp18
 70
     1
102
RTVSPropertyOp19
 70
     1
102
RTVSPropertyOp20
 70
     1
102
RTVSPropertyOp21
 70
     1
102
RTVSPropertyOp22
 70
     1
102
RTVSPropertyOp23
 70
     1
102
RTVSPropertyOp24
 70
     1
102
RTVSPropertyOp25
 70
     1
102
RTVSPropertyOp26
 70
     1
102
RTVSPropertyOp27
 70
     1
102
RTVSPropertyOp28
 70
     1
102
RTVSPropertyOp29
 70
     1
102
RTVSPropertyOp30
 70
     1
102
RTVSPropertyOp31
 70
     1
102
RTVSPropertyOp32
 70
     1
102
RTVSPropertyOp33
 70
     1
102
RTVSPropertyOp34
 70
     1
102
RTVSPropertyOp35
 70
     1
102
RTVSPropertyOp36
 70
     1
102
RTVSPropertyOp37
 70
     1
102
RTVSPropertyOp38
 70
     1
102
RTVSPropertyOp39
 70
     1
102
RTVSPropertyOp40
 70
     1
102
RTVSPropertyOp41
 70
     1
102
RTVSPropertyOp42
 70
     1
102
RTVSPropertyOp43
 70
     1
102
RTVSPropertyOp44
 70
     1
102
RTVSPropertyOp45
 70
     1
102
RTVSPropertyOp46
 70
     1
102
RTVSPropertyOp47
 70
     1
102
RTVSPropertyOp48
 70
     1
102
RTVSPropertyOp49
 70
     1
102
RTVSPropertyOp50
 70
     1
102
RTVSPropertyOp51
 70
     0
102
RTVSPropertyOp52
 70
     0
102
RTVSPropertyOp53
 70
     1
102
RTVSPropertyOp54
 70
     1
102
RTVSPropertyOp55
 70
     1
102
RTVSPropertyOp56
 70
     1
102
RTVSPropertyOp57
 70
     1
102
RTVSPost2010Prop28
280
     0
102
RTVSPost2010PropOp28
 70
     1
102
RTVSPost2010Prop29
280
     1
102
RTVSPost2010PropOp29
 70
     1
102
RTVSPost2010Prop30
280
     1
102
RTVSPost2010PropOp30
 70
     1
102
RTVSPost2010Prop31
280
     0
102
RTVSPost2010PropOp31
 70
     1
102
RTVSPost2010Prop32
280
     0
102
RTVSPost2010PropOp32
 70
     1
102
RTVSPost2010Prop33
280
     0
102
RTVSPost2010PropOp33
 70
     1
102
RTVSPost2010Prop34
280
     0
102
RTVSPost2010PropOp34
 70
     1
102
RTVSPost2010Prop35
280
     0
102
RTVSPost2010PropOp35
 70
     1
102
RTVSPost2010Prop36
280
     0
102
RTVSPost2010PropOp36
 70
     1
102
RTVSPost2010Prop37
 90
       50
102
RTVSPost2010PropOp37
 70
     1
102
RTVSPost2010Prop38
140
0.0
102
RTVSPost2010PropOp38
 70
     1
102
RTVSPost2010Prop39
140
1.0
102
RTVSPost2010PropOp39
 70
     1
102
RTVSPost2010Prop40
 90
        0
102
RTVSPost2010PropOp40
 70
     1
102
RTVSPost2010Prop41ColorIndex
 90
       18
102
RTVSPost2010Prop41ColorRGB
 90
        0
102
RTVSPost2010PropOp41
 70
     1
102
RTVSPost2010Prop42
 90
       50
102
RTVSPost2010PropOp42
 70
     1
102
RTVSPost2010Prop43
 90
        3
102
RTVSPost2010PropOp43
 70
     1
102
RTVSPost2010Prop44ColorIndex
 90
        5
102
RTVSPost2010Prop44ColorRGB
 90
      255
102
RTVSPost2010PropOp44
 70
     1
102
RTVSPost2010Prop45
280
     0
102
RTVSPost2010PropOp45
 70
     1
102
RTVSPost2010Prop46
 90
       50
102
RTVSPost2010PropOp46
 70
     1
102
RTVSPost2010Prop47
 90
       50
102
RTVSPost2010PropOp47
 70
     1
102
RTVSPost2010Prop48
 90
       50
102
RTVSPost2010PropOp48
 70
     1
102
RTVSPost2010Prop49
280
     0
102
RTVSPost2010PropOp49
 70
     1
102
RTVSPost2010Prop50
 90
       50
102
RTVSPost2010PropOp50
 70
     1
102
RTVSPost2010Prop51ColorIndex
 90
      256
102
RTVSPost2010Prop51ColorRGB
 90
-16777216
102
RTVSPost2010PropOp51
 70
     0
102
RTVSPost2010Prop52
140
1.0
102
RTVSPost2010PropOp52
 70
     0
102
RTVSPost2010Prop53
 90
        2
102
RTVSPost2010PropOp53
 70
     1
102
RTVSPost2010Prop54
  1
strokes_ogs.tif
102
RTVSPost2010PropOp54
 70
     1
102
RTVSPost2010Prop55
280
     0
102
RTVSPost2010PropOp55
 70
     1
102
RTVSPost2010Prop56
140
1.0
102
RTVSPost2010PropOp56
 70
     1
102
RTVSPost2010Prop57
140
1.0
102
RTVSPost2010PropOp57
 70
     1
  0
XRECORD
  5
3CF
102
{ACAD_REACTORS
330
3CE
102
}
330
3CE
100
AcDbXrecord
280
     1
102
RTVSPropertyOp0
 70
     0
102
RTVSPropertyOp1
 70
     0
102
RTVSPropertyOp2
 70
     0
102
RTVSPropertyOp3
 70
     0
102
RTVSPropertyOp4
 70
     0
102
RTVSPropertyOp5
 70
     0
102
RTVSPropertyOp6
 70
     0
102
RTVSPropertyOp7
 70
     0
102
RTVSPropertyOp8
 70
     0
102
RTVSPropertyOp9
 70
     0
102
RTVSPropertyOp10
 70
     0
102
RTVSPropertyOp11
 70
     0
102
RTVSPropertyOp12
 70
     0
102
RTVSPropertyOp13
 70
     0
102
RTVSPropertyOp14
 70
     2
102
RTVSPropertyOp15
 70
     0
102
RTVSPropertyOp16
 70
     0
102
RTVSPropertyOp17
 70
     0
102
RTVSPropertyOp18
 70
     0
102
RTVSPropertyOp19
 70
     0
102
RTVSPropertyOp20
 70
     0
102
RTVSPropertyOp21
 70
     0
102
RTVSPropertyOp22
 70
     0
102
RTVSPropertyOp23
 70
     0
102
RTVSPropertyOp24
 70
     0
102
RTVSPropertyOp25
 70
     0
102
RTVSPropertyOp26
 70
     0
102
RTVSPropertyOp27
 70
     0
102
RTVSPropertyOp28
 70
     0
102
RTVSPropertyOp29
 70
     0
102
RTVSPropertyOp30
 70
     0
102
RTVSPropertyOp31
 70
     0
102
RTVSPropertyOp32
 70
     0
102
RTVSPropertyOp33
 70
     0
102
RTVSPropertyOp34
 70
     0
102
RTVSPropertyOp35
 70
     0
102
RTVSPropertyOp36
 70
     0
102
RTVSPropertyOp37
 70
     0
102
RTVSPropertyOp38
 70
     0
102
RTVSPropertyOp39
 70
     0
102
RTVSPropertyOp40
 70
     0
102
RTVSPropertyOp41
 70
     0
102
RTVSPropertyOp42
 70
     0
102
RTVSPropertyOp43
 70
     0
102
RTVSPropertyOp44
 70
     0
102
RTVSPropertyOp45
 70
     0
102
RTVSPropertyOp46
 70
     0
102
RTVSPropertyOp47
 70
     0
102
RTVSPropertyOp48
 70
     0
102
RTVSPropertyOp49
 70
     0
102
RTVSPropertyOp50
 70
     0
102
RTVSPropertyOp51
 70
     0
102
RTVSPropertyOp52
 70
     0
102
RTVSPropertyOp53
 70
     0
102
RTVSPropertyOp54
 70
     0
102
RTVSPropertyOp55
 70
     0
102
RTVSPropertyOp56
 70
     0
102
RTVSPropertyOp57
 70
     0
102
RTVSPost2010Prop28
280
     0
102
RTVSPost2010PropOp28
 70
     0
102
RTVSPost2010Prop29
280
     1
102
RTVSPost2010PropOp29
 70
     0
102
RTVSPost2010Prop30
280
     1
102
RTVSPost2010PropOp30
 70
     0
102
RTVSPost2010Prop31
280
     0
102
RTVSPost2010PropOp31
 70
     0
102
RTVSPost2010Prop32
280
     0
102
RTVSPost2010PropOp32
 70
     0
102
RTVSPost2010Prop33
280
     0
102
RTVSPost2010PropOp33
 70
     0
102
RTVSPost2010Prop34
280
     0
102
RTVSPost2010PropOp34
 70
     0
102
RTVSPost2010Prop35
280
     0
102
RTVSPost2010PropOp35
 70
     0
102
RTVSPost2010Prop36
280
     0
102
RTVSPost2010PropOp36
 70
     0
102
RTVSPost2010Prop37
 90
       50
102
RTVSPost2010PropOp37
 70
     0
102
RTVSPost2010Prop38
140
0.0
102
RTVSPost2010PropOp38
 70
     0
102
RTVSPost2010Prop39
140
1.0
102
RTVSPost2010PropOp39
 70
     0
102
RTVSPost2010Prop40
 90
        0
102
RTVSPost2010PropOp40
 70
     0
102
RTVSPost2010Prop41ColorIndex
 90
       18
102
RTVSPost2010Prop41ColorRGB
 90
        0
102
RTVSPost2010PropOp41
 70
     0
102
RTVSPost2010Prop42
 90
       50
102
RTVSPost2010PropOp42
 70
     0
102
RTVSPost2010Prop43
 90
        3
102
RTVSPost2010PropOp43
 70
     0
102
RTVSPost2010Prop44ColorIndex
 90
        5
102
RTVSPost2010Prop44ColorRGB
 90
      255
102
RTVSPost2010PropOp44
 70
     0
102
RTVSPost2010Prop45
280
     0
102
RTVSPost2010PropOp45
 70
     0
102
RTVSPost2010Prop46
 90
       50
102
RTVSPost2010PropOp46
 70
     0
102
RTVSPost2010Prop47
 90
       50
102
RTVSPost2010PropOp47
 70
     0
102
RTVSPost2010Prop48
 90
       50
102
RTVSPost2010PropOp48
 70
     0
102
RTVSPost2010Prop49
280
     0
102
RTVSPost2010PropOp49
 70
     0
102
RTVSPost2010Prop50
 90
       50
102
RTVSPost2010PropOp50
 70
     0
102
RTVSPost2010Prop51ColorIndex
 90
      256
102
RTVSPost2010Prop51ColorRGB
 90
-16777216
102
RTVSPost2010PropOp51
 70
     0
102
RTVSPost2010Prop52
140
1.0
102
RTVSPost2010PropOp52
 70
     0
102
RTVSPost2010Prop53
 90
        2
102
RTVSPost2010PropOp53
 70
     0
102
RTVSPost2010Prop54
  1
strokes_ogs.tif
102
RTVSPost2010PropOp54
 70
     0
102
RTVSPost2010Prop55
280
     0
102
RTVSPost2010PropOp55
 70
     0
102
RTVSPost2010Prop56
140
1.0
102
RTVSPost2010PropOp56
 70
     0
102
RTVSPost2010Prop57
140
1.0
102
RTVSPost2010PropOp57
 70
     0
  0
XRECORD
  5
3C9
102
{ACAD_REACTORS
330
3C8
102
}
330
3C8
100
AcDbXrecord
280
     1
102
RTVSPropertyOp0
 70
     1
102
RTVSPropertyOp1
 70
     1
102
RTVSPropertyOp2
 70
     1
102
RTVSPropertyOp3
 70
     1
102
RTVSPropertyOp4
 70
     1
102
RTVSPropertyOp5
 70
     1
102
RTVSPropertyOp6
 70
     1
102
RTVSPropertyOp7
 70
     1
102
RTVSPropertyOp8
 70
     1
102
RTVSPropertyOp9
 70
     1
102
RTVSPropertyOp10
 70
     1
102
RTVSPropertyOp11
 70
     1
102
RTVSPropertyOp12
 70
     1
102
RTVSPropertyOp13
 70
     1
102
RTVSPropertyOp14
 70
     1
102
RTVSPropertyOp15
 70
     1
102
RTVSPropertyOp16
 70
     1
102
RTVSPropertyOp17
 70
     1
102
RTVSPropertyOp18
 70
     1
102
RTVSPropertyOp19
 70
     1
102
RTVSPropertyOp20
 70
     1
102
RTVSPropertyOp21
 70
     1
102
RTVSPropertyOp22
 70
     1
102
RTVSPropertyOp23
 70
     1
102
RTVSPropertyOp24
 70
     1
102
RTVSPropertyOp25
 70
     1
102
RTVSPropertyOp26
 70
     1
102
RTVSPropertyOp27
 70
     1
102
RTVSPropertyOp28
 70
     1
102
RTVSPropertyOp29
 70
     1
102
RTVSPropertyOp30
 70
     1
102
RTVSPropertyOp31
 70
     1
102
RTVSPropertyOp32
 70
     1
102
RTVSPropertyOp33
 70
     1
102
RTVSPropertyOp34
 70
     1
102
RTVSPropertyOp35
 70
     1
102
RTVSPropertyOp36
 70
     1
102
RTVSPropertyOp37
 70
     1
102
RTVSPropertyOp38
 70
     1
102
RTVSPropertyOp39
 70
     1
102
RTVSPropertyOp40
 70
     1
102
RTVSPropertyOp41
 70
     1
102
RTVSPropertyOp42
 70
     1
102
RTVSPropertyOp43
 70
     1
102
RTVSPropertyOp44
 70
     1
102
RTVSPropertyOp45
 70
     1
102
RTVSPropertyOp46
 70
     1
102
RTVSPropertyOp47
 70
     1
102
RTVSPropertyOp48
 70
     1
102
RTVSPropertyOp49
 70
     1
102
RTVSPropertyOp50
 70
     1
102
RTVSPropertyOp51
 70
     0
102
RTVSPropertyOp52
 70
     0
102
RTVSPropertyOp53
 70
     1
102
RTVSPropertyOp54
 70
     1
102
RTVSPropertyOp55
 70
     1
102
RTVSPropertyOp56
 70
     1
102
RTVSPropertyOp57
 70
     1
102
RTVSPost2010Prop28
280
     0
102
RTVSPost2010PropOp28
 70
     1
102
RTVSPost2010Prop29
280
     1
102
RTVSPost2010PropOp29
 70
     1
102
RTVSPost2010Prop30
280
     1
102
RTVSPost2010PropOp30
 70
     1
102
RTVSPost2010Prop31
280
     0
102
RTVSPost2010PropOp31
 70
     1
102
RTVSPost2010Prop32
280
     0
102
RTVSPost2010PropOp32
 70
     1
102
RTVSPost2010Prop33
280
     0
102
RTVSPost2010PropOp33
 70
     1
102
RTVSPost2010Prop34
280
     0
102
RTVSPost2010PropOp34
 70
     1
102
RTVSPost2010Prop35
280
     0
102
RTVSPost2010PropOp35
 70
     1
102
RTVSPost2010Prop36
280
     0
102
RTVSPost2010PropOp36
 70
     1
102
RTVSPost2010Prop37
 90
       50
102
RTVSPost2010PropOp37
 70
     1
102
RTVSPost2010Prop38
140
0.0
102
RTVSPost2010PropOp38
 70
     1
102
RTVSPost2010Prop39
140
1.0
102
RTVSPost2010PropOp39
 70
     1
102
RTVSPost2010Prop40
 90
        0
102
RTVSPost2010PropOp40
 70
     1
102
RTVSPost2010Prop41ColorIndex
 90
       18
102
RTVSPost2010Prop41ColorRGB
 90
        0
102
RTVSPost2010PropOp41
 70
     1
102
RTVSPost2010Prop42
 90
       50
102
RTVSPost2010PropOp42
 70
     1
102
RTVSPost2010Prop43
 90
        3
102
RTVSPost2010PropOp43
 70
     1
102
RTVSPost2010Prop44ColorIndex
 90
        5
102
RTVSPost2010Prop44ColorRGB
 90
      255
102
RTVSPost2010PropOp44
 70
     1
102
RTVSPost2010Prop45
280
     0
102
RTVSPost2010PropOp45
 70
     1
102
RTVSPost2010Prop46
 90
       50
102
RTVSPost2010PropOp46
 70
     1
102
RTVSPost2010Prop47
 90
       50
102
RTVSPost2010PropOp47
 70
     1
102
RTVSPost2010Prop48
 90
       50
102
RTVSPost2010PropOp48
 70
     1
102
RTVSPost2010Prop49
280
     0
102
RTVSPost2010PropOp49
 70
     1
102
RTVSPost2010Prop50
 90
       50
102
RTVSPost2010PropOp50
 70
     1
102
RTVSPost2010Prop51ColorIndex
 90
      256
102
RTVSPost2010Prop51ColorRGB
 90
-16777216
102
RTVSPost2010PropOp51
 70
     0
102
RTVSPost2010Prop52
140
1.0
102
RTVSPost2010PropOp52
 70
     0
102
RTVSPost2010Prop53
 90
        2
102
RTVSPost2010PropOp53
 70
     1
102
RTVSPost2010Prop54
  1
strokes_ogs.tif
102
RTVSPost2010PropOp54
 70
     1
102
RTVSPost2010Prop55
280
     0
102
RTVSPost2010PropOp55
 70
     1
102
RTVSPost2010Prop56
140
1.0
102
RTVSPost2010PropOp56
 70
     1
102
RTVSPost2010Prop57
140
1.0
102
RTVSPost2010PropOp57
 70
     1
  0
XRECORD
  5
3D1
102
{ACAD_REACTORS
330
3D0
102
}
330
3D0
100
AcDbXrecord
280
     1
102
RTVSPropertyOp0
 70
     0
102
RTVSPropertyOp1
 70
     0
102
RTVSPropertyOp2
 70
     0
102
RTVSPropertyOp3
 70
     0
102
RTVSPropertyOp4
 70
     0
102
RTVSPropertyOp5
 70
     0
102
RTVSPropertyOp6
 70
     0
102
RTVSPropertyOp7
 70
     0
102
RTVSPropertyOp8
 70
     0
102
RTVSPropertyOp9
 70
     0
102
RTVSPropertyOp10
 70
     0
102
RTVSPropertyOp11
 70
     0
102
RTVSPropertyOp12
 70
     0
102
RTVSPropertyOp13
 70
     0
102
RTVSPropertyOp14
 70
     2
102
RTVSPropertyOp15
 70
     0
102
RTVSPropertyOp16
 70
     0
102
RTVSPropertyOp17
 70
     0
102
RTVSPropertyOp18
 70
     0
102
RTVSPropertyOp19
 70
     0
102
RTVSPropertyOp20
 70
     0
102
RTVSPropertyOp21
 70
     0
102
RTVSPropertyOp22
 70
     0
102
RTVSPropertyOp23
 70
     0
102
RTVSPropertyOp24
 70
     0
102
RTVSPropertyOp25
 70
     0
102
RTVSPropertyOp26
 70
     0
102
RTVSPropertyOp27
 70
     0
102
RTVSPropertyOp28
 70
     0
102
RTVSPropertyOp29
 70
     0
102
RTVSPropertyOp30
 70
     0
102
RTVSPropertyOp31
 70
     0
102
RTVSPropertyOp32
 70
     0
102
RTVSPropertyOp33
 70
     0
102
RTVSPropertyOp34
 70
     0
102
RTVSPropertyOp35
 70
     0
102
RTVSPropertyOp36
 70
     0
102
RTVSPropertyOp37
 70
     0
102
RTVSPropertyOp38
 70
     0
102
RTVSPropertyOp39
 70
     0
102
RTVSPropertyOp40
 70
     0
102
RTVSPropertyOp41
 70
     0
102
RTVSPropertyOp42
 70
     0
102
RTVSPropertyOp43
 70
     0
102
RTVSPropertyOp44
 70
     0
102
RTVSPropertyOp45
 70
     0
102
RTVSPropertyOp46
 70
     0
102
RTVSPropertyOp47
 70
     0
102
RTVSPropertyOp48
 70
     0
102
RTVSPropertyOp49
 70
     0
102
RTVSPropertyOp50
 70
     0
102
RTVSPropertyOp51
 70
     0
102
RTVSPropertyOp52
 70
     0
102
RTVSPropertyOp53
 70
     0
102
RTVSPropertyOp54
 70
     0
102
RTVSPropertyOp55
 70
     0
102
RTVSPropertyOp56
 70
     0
102
RTVSPropertyOp57
 70
     0
102
RTVSPost2010Prop28
280
     0
102
RTVSPost2010PropOp28
 70
     0
102
RTVSPost2010Prop29
280
     1
102
RTVSPost2010PropOp29
 70
     0
102
RTVSPost2010Prop30
280
     1
102
RTVSPost2010PropOp30
 70
     0
102
RTVSPost2010Prop31
280
     0
102
RTVSPost2010PropOp31
 70
     0
102
RTVSPost2010Prop32
280
     0
102
RTVSPost2010PropOp32
 70
     0
102
RTVSPost2010Prop33
280
     0
102
RTVSPost2010PropOp33
 70
     0
102
RTVSPost2010Prop34
280
     0
102
RTVSPost2010PropOp34
 70
     0
102
RTVSPost2010Prop35
280
     0
102
RTVSPost2010PropOp35
 70
     0
102
RTVSPost2010Prop36
280
     0
102
RTVSPost2010PropOp36
 70
     0
102
RTVSPost2010Prop37
 90
       50
102
RTVSPost2010PropOp37
 70
     0
102
RTVSPost2010Prop38
140
0.0
102
RTVSPost2010PropOp38
 70
     0
102
RTVSPost2010Prop39
140
1.0
102
RTVSPost2010PropOp39
 70
     0
102
RTVSPost2010Prop40
 90
        0
102
RTVSPost2010PropOp40
 70
     0
102
RTVSPost2010Prop41ColorIndex
 90
       18
102
RTVSPost2010Prop41ColorRGB
 90
        0
102
RTVSPost2010PropOp41
 70
     0
102
RTVSPost2010Prop42
 90
       50
102
RTVSPost2010PropOp42
 70
     0
102
RTVSPost2010Prop43
 90
        3
102
RTVSPost2010PropOp43
 70
     0
102
RTVSPost2010Prop44ColorIndex
 90
        5
102
RTVSPost2010Prop44ColorRGB
 90
      255
102
RTVSPost2010PropOp44
 70
     0
102
RTVSPost2010Prop45
280
     0
102
RTVSPost2010PropOp45
 70
     0
102
RTVSPost2010Prop46
 90
       50
102
RTVSPost2010PropOp46
 70
     0
102
RTVSPost2010Prop47
 90
       50
102
RTVSPost2010PropOp47
 70
     0
102
RTVSPost2010Prop48
 90
       50
102
RTVSPost2010PropOp48
 70
     0
102
RTVSPost2010Prop49
280
     0
102
RTVSPost2010PropOp49
 70
     0
102
RTVSPost2010Prop50
 90
       50
102
RTVSPost2010PropOp50
 70
     0
102
RTVSPost2010Prop51ColorIndex
 90
      256
102
RTVSPost2010Prop51ColorRGB
 90
-16777216
102
RTVSPost2010PropOp51
 70
     0
102
RTVSPost2010Prop52
140
1.0
102
RTVSPost2010PropOp52
 70
     0
102
RTVSPost2010Prop53
 90
        2
102
RTVSPost2010PropOp53
 70
     0
102
RTVSPost2010Prop54
  1
strokes_ogs.tif
102
RTVSPost2010PropOp54
 70
     0
102
RTVSPost2010Prop55
280
     0
102
RTVSPost2010PropOp55
 70
     0
102
RTVSPost2010Prop56
140
1.0
102
RTVSPost2010PropOp56
 70
     0
102
RTVSPost2010Prop57
140
1.0
102
RTVSPost2010PropOp57
 70
     0
  0
XRECORD
  5
3BF
102
{ACAD_REACTORS
330
3BE
102
}
330
3BE
100
AcDbXrecord
280
     1
102
RTVSPropertyOp0
 70
     1
102
RTVSPropertyOp1
 70
     1
102
RTVSPropertyOp2
 70
     1
102
RTVSPropertyOp3
 70
     1
102
RTVSPropertyOp4
 70
     1
102
RTVSPropertyOp5
 70
     1
102
RTVSPropertyOp6
 70
     1
102
RTVSPropertyOp7
 70
     1
102
RTVSPropertyOp8
 70
     1
102
RTVSPropertyOp9
 70
     1
102
RTVSPropertyOp10
 70
     1
102
RTVSPropertyOp11
 70
     1
102
RTVSPropertyOp12
 70
     1
102
RTVSPropertyOp13
 70
     1
102
RTVSPropertyOp14
 70
     1
102
RTVSPropertyOp15
 70
     1
102
RTVSPropertyOp16
 70
     1
102
RTVSPropertyOp17
 70
     1
102
RTVSPropertyOp18
 70
     1
102
RTVSPropertyOp19
 70
     1
102
RTVSPropertyOp20
 70
     1
102
RTVSPropertyOp21
 70
     1
102
RTVSPropertyOp22
 70
     1
102
RTVSPropertyOp23
 70
     1
102
RTVSPropertyOp24
 70
     1
102
RTVSPropertyOp25
 70
     1
102
RTVSPropertyOp26
 70
     1
102
RTVSPropertyOp27
 70
     1
102
RTVSPropertyOp28
 70
     1
102
RTVSPropertyOp29
 70
     1
102
RTVSPropertyOp30
 70
     1
102
RTVSPropertyOp31
 70
     1
102
RTVSPropertyOp32
 70
     1
102
RTVSPropertyOp33
 70
     1
102
RTVSPropertyOp34
 70
     1
102
RTVSPropertyOp35
 70
     1
102
RTVSPropertyOp36
 70
     1
102
RTVSPropertyOp37
 70
     1
102
RTVSPropertyOp38
 70
     1
102
RTVSPropertyOp39
 70
     1
102
RTVSPropertyOp40
 70
     1
102
RTVSPropertyOp41
 70
     1
102
RTVSPropertyOp42
 70
     1
102
RTVSPropertyOp43
 70
     1
102
RTVSPropertyOp44
 70
     1
102
RTVSPropertyOp45
 70
     1
102
RTVSPropertyOp46
 70
     1
102
RTVSPropertyOp47
 70
     1
102
RTVSPropertyOp48
 70
     1
102
RTVSPropertyOp49
 70
     1
102
RTVSPropertyOp50
 70
     1
102
RTVSPropertyOp51
 70
     0
102
RTVSPropertyOp52
 70
     0
102
RTVSPropertyOp53
 70
     1
102
RTVSPropertyOp54
 70
     1
102
RTVSPropertyOp55
 70
     1
102
RTVSPropertyOp56
 70
     1
102
RTVSPropertyOp57
 70
     1
102
RTVSPost2010Prop28
280
     0
102
RTVSPost2010PropOp28
 70
     1
102
RTVSPost2010Prop29
280
     1
102
RTVSPost2010PropOp29
 70
     1
102
RTVSPost2010Prop30
280
     1
102
RTVSPost2010PropOp30
 70
     1
102
RTVSPost2010Prop31
280
     0
102
RTVSPost2010PropOp31
 70
     1
102
RTVSPost2010Prop32
280
     0
102
RTVSPost2010PropOp32
 70
     1
102
RTVSPost2010Prop33
280
     0
102
RTVSPost2010PropOp33
 70
     1
102
RTVSPost2010Prop34
280
     0
102
RTVSPost2010PropOp34
 70
     1
102
RTVSPost2010Prop35
280
     0
102
RTVSPost2010PropOp35
 70
     1
102
RTVSPost2010Prop36
280
     0
102
RTVSPost2010PropOp36
 70
     1
102
RTVSPost2010Prop37
 90
       50
102
RTVSPost2010PropOp37
 70
     1
102
RTVSPost2010Prop38
140
0.0
102
RTVSPost2010PropOp38
 70
     1
102
RTVSPost2010Prop39
140
1.0
102
RTVSPost2010PropOp39
 70
     1
102
RTVSPost2010Prop40
 90
        0
102
RTVSPost2010PropOp40
 70
     1
102
RTVSPost2010Prop41ColorIndex
 90
       18
102
RTVSPost2010Prop41ColorRGB
 90
        0
102
RTVSPost2010PropOp41
 70
     1
102
RTVSPost2010Prop42
 90
       50
102
RTVSPost2010PropOp42
 70
     1
102
RTVSPost2010Prop43
 90
        3
102
RTVSPost2010PropOp43
 70
     1
102
RTVSPost2010Prop44ColorIndex
 90
        5
102
RTVSPost2010Prop44ColorRGB
 90
      255
102
RTVSPost2010PropOp44
 70
     1
102
RTVSPost2010Prop45
280
     0
102
RTVSPost2010PropOp45
 70
     1
102
RTVSPost2010Prop46
 90
       50
102
RTVSPost2010PropOp46
 70
     1
102
RTVSPost2010Prop47
 90
       50
102
RTVSPost2010PropOp47
 70
     1
102
RTVSPost2010Prop48
 90
       50
102
RTVSPost2010PropOp48
 70
     1
102
RTVSPost2010Prop49
280
     0
102
RTVSPost2010PropOp49
 70
     1
102
RTVSPost2010Prop50
 90
       50
102
RTVSPost2010PropOp50
 70
     1
102
RTVSPost2010Prop51ColorIndex
 90
      256
102
RTVSPost2010Prop51ColorRGB
 90
-16777216
102
RTVSPost2010PropOp51
 70
     0
102
RTVSPost2010Prop52
140
1.0
102
RTVSPost2010PropOp52
 70
     0
102
RTVSPost2010Prop53
 90
        2
102
RTVSPost2010PropOp53
 70
     1
102
RTVSPost2010Prop54
  1
strokes_ogs.tif
102
RTVSPost2010PropOp54
 70
     1
102
RTVSPost2010Prop55
280
     0
102
RTVSPost2010PropOp55
 70
     1
102
RTVSPost2010Prop56
140
1.0
102
RTVSPost2010PropOp56
 70
     1
102
RTVSPost2010Prop57
140
1.0
102
RTVSPost2010PropOp57
 70
     1
  0
XRECORD
  5
3DD
102
{ACAD_REACTORS
330
3DC
102
}
330
3DC
100
AcDbXrecord
280
     1
102
RTVSPropertyOp0
 70
     1
102
RTVSPropertyOp1
 70
     1
102
RTVSPropertyOp2
 70
     1
102
RTVSPropertyOp3
 70
     1
102
RTVSPropertyOp4
 70
     1
102
RTVSPropertyOp5
 70
     1
102
RTVSPropertyOp6
 70
     1
102
RTVSPropertyOp7
 70
     1
102
RTVSPropertyOp8
 70
     1
102
RTVSPropertyOp9
 70
     1
102
RTVSPropertyOp10
 70
     1
102
RTVSPropertyOp11
 70
     1
102
RTVSPropertyOp12
 70
     1
102
RTVSPropertyOp13
 70
     1
102
RTVSPropertyOp14
 70
     1
102
RTVSPropertyOp15
 70
     1
102
RTVSPropertyOp16
 70
     1
102
RTVSPropertyOp17
 70
     1
102
RTVSPropertyOp18
 70
     1
102
RTVSPropertyOp19
 70
     1
102
RTVSPropertyOp20
 70
     1
102
RTVSPropertyOp21
 70
     1
102
RTVSPropertyOp22
 70
     1
102
RTVSPropertyOp23
 70
     1
102
RTVSPropertyOp24
 70
     1
102
RTVSPropertyOp25
 70
     1
102
RTVSPropertyOp26
 70
     1
102
RTVSPropertyOp27
 70
     1
102
RTVSPropertyOp28
 70
     1
102
RTVSPropertyOp29
 70
     1
102
RTVSPropertyOp30
 70
     1
102
RTVSPropertyOp31
 70
     1
102
RTVSPropertyOp32
 70
     1
102
RTVSPropertyOp33
 70
     1
102
RTVSPropertyOp34
 70
     1
102
RTVSPropertyOp35
 70
     1
102
RTVSPropertyOp36
 70
     1
102
RTVSPropertyOp37
 70
     1
102
RTVSPropertyOp38
 70
     1
102
RTVSPropertyOp39
 70
     1
102
RTVSPropertyOp40
 70
     1
102
RTVSPropertyOp41
 70
     1
102
RTVSPropertyOp42
 70
     1
102
RTVSPropertyOp43
 70
     1
102
RTVSPropertyOp44
 70
     1
102
RTVSPropertyOp45
 70
     1
102
RTVSPropertyOp46
 70
     1
102
RTVSPropertyOp47
 70
     1
102
RTVSPropertyOp48
 70
     1
102
RTVSPropertyOp49
 70
     1
102
RTVSPropertyOp50
 70
     1
102
RTVSPropertyOp51
 70
     0
102
RTVSPropertyOp52
 70
     0
102
RTVSPropertyOp53
 70
     1
102
RTVSPropertyOp54
 70
     1
102
RTVSPropertyOp55
 70
     1
102
RTVSPropertyOp56
 70
     1
102
RTVSPropertyOp57
 70
     1
102
RTVSPost2010Prop28
280
     0
102
RTVSPost2010PropOp28
 70
     1
102
RTVSPost2010Prop29
280
     1
102
RTVSPost2010PropOp29
 70
     1
102
RTVSPost2010Prop30
280
     1
102
RTVSPost2010PropOp30
 70
     1
102
RTVSPost2010Prop31
280
     0
102
RTVSPost2010PropOp31
 70
     1
102
RTVSPost2010Prop32
280
     0
102
RTVSPost2010PropOp32
 70
     1
102
RTVSPost2010Prop33
280
     0
102
RTVSPost2010PropOp33
 70
     1
102
RTVSPost2010Prop34
280
     0
102
RTVSPost2010PropOp34
 70
     1
102
RTVSPost2010Prop35
280
     0
102
RTVSPost2010PropOp35
 70
     1
102
RTVSPost2010Prop36
280
     0
102
RTVSPost2010PropOp36
 70
     1
102
RTVSPost2010Prop37
 90
       50
102
RTVSPost2010PropOp37
 70
     1
102
RTVSPost2010Prop38
140
0.0
102
RTVSPost2010PropOp38
 70
     1
102
RTVSPost2010Prop39
140
1.0
102
RTVSPost2010PropOp39
 70
     1
102
RTVSPost2010Prop40
 90
        0
102
RTVSPost2010PropOp40
 70
     1
102
RTVSPost2010Prop41ColorIndex
 90
       18
102
RTVSPost2010Prop41ColorRGB
 90
        0
102
RTVSPost2010PropOp41
 70
     1
102
RTVSPost2010Prop42
 90
       50
102
RTVSPost2010PropOp42
 70
     1
102
RTVSPost2010Prop43
 90
        3
102
RTVSPost2010PropOp43
 70
     1
102
RTVSPost2010Prop44ColorIndex
 90
        5
102
RTVSPost2010Prop44ColorRGB
 90
      255
102
RTVSPost2010PropOp44
 70
     1
102
RTVSPost2010Prop45
280
     0
102
RTVSPost2010PropOp45
 70
     1
102
RTVSPost2010Prop46
 90
       50
102
RTVSPost2010PropOp46
 70
     1
102
RTVSPost2010Prop47
 90
       50
102
RTVSPost2010PropOp47
 70
     1
102
RTVSPost2010Prop48
 90
       50
102
RTVSPost2010PropOp48
 70
     1
102
RTVSPost2010Prop49
280
     0
102
RTVSPost2010PropOp49
 70
     1
102
RTVSPost2010Prop50
 90
       50
102
RTVSPost2010PropOp50
 70
     1
102
RTVSPost2010Prop51ColorIndex
 90
      256
102
RTVSPost2010Prop51ColorRGB
 90
-16777216
102
RTVSPost2010PropOp51
 70
     0
102
RTVSPost2010Prop52
140
1.0
102
RTVSPost2010PropOp52
 70
     0
102
RTVSPost2010Prop53
 90
        2
102
RTVSPost2010PropOp53
 70
     1
102
RTVSPost2010Prop54
  1
strokes_ogs.tif
102
RTVSPost2010PropOp54
 70
     1
102
RTVSPost2010Prop55
280
     0
102
RTVSPost2010PropOp55
 70
     1
102
RTVSPost2010Prop56
140
1.0
102
RTVSPost2010PropOp56
 70
     1
102
RTVSPost2010Prop57
140
1.0
102
RTVSPost2010PropOp57
 70
     1
  0
XRECORD
  5
3DB
102
{ACAD_REACTORS
330
3DA
102
}
330
3DA
100
AcDbXrecord
280
     1
102
RTVSPropertyOp0
 70
     1
102
RTVSPropertyOp1
 70
     1
102
RTVSPropertyOp2
 70
     1
102
RTVSPropertyOp3
 70
     1
102
RTVSPropertyOp4
 70
     1
102
RTVSPropertyOp5
 70
     1
102
RTVSPropertyOp6
 70
     1
102
RTVSPropertyOp7
 70
     1
102
RTVSPropertyOp8
 70
     1
102
RTVSPropertyOp9
 70
     1
102
RTVSPropertyOp10
 70
     1
102
RTVSPropertyOp11
 70
     1
102
RTVSPropertyOp12
 70
     1
102
RTVSPropertyOp13
 70
     1
102
RTVSPropertyOp14
 70
     1
102
RTVSPropertyOp15
 70
     1
102
RTVSPropertyOp16
 70
     1
102
RTVSPropertyOp17
 70
     1
102
RTVSPropertyOp18
 70
     1
102
RTVSPropertyOp19
 70
     1
102
RTVSPropertyOp20
 70
     1
102
RTVSPropertyOp21
 70
     1
102
RTVSPropertyOp22
 70
     1
102
RTVSPropertyOp23
 70
     1
102
RTVSPropertyOp24
 70
     1
102
RTVSPropertyOp25
 70
     1
102
RTVSPropertyOp26
 70
     1
102
RTVSPropertyOp27
 70
     1
102
RTVSPropertyOp28
 70
     1
102
RTVSPropertyOp29
 70
     1
102
RTVSPropertyOp30
 70
     1
102
RTVSPropertyOp31
 70
     1
102
RTVSPropertyOp32
 70
     1
102
RTVSPropertyOp33
 70
     1
102
RTVSPropertyOp34
 70
     1
102
RTVSPropertyOp35
 70
     1
102
RTVSPropertyOp36
 70
     1
102
RTVSPropertyOp37
 70
     1
102
RTVSPropertyOp38
 70
     1
102
RTVSPropertyOp39
 70
     1
102
RTVSPropertyOp40
 70
     1
102
RTVSPropertyOp41
 70
     1
102
RTVSPropertyOp42
 70
     1
102
RTVSPropertyOp43
 70
     1
102
RTVSPropertyOp44
 70
     1
102
RTVSPropertyOp45
 70
     1
102
RTVSPropertyOp46
 70
     1
102
RTVSPropertyOp47
 70
     1
102
RTVSPropertyOp48
 70
     1
102
RTVSPropertyOp49
 70
     1
102
RTVSPropertyOp50
 70
     1
102
RTVSPropertyOp51
 70
     0
102
RTVSPropertyOp52
 70
     0
102
RTVSPropertyOp53
 70
     1
102
RTVSPropertyOp54
 70
     1
102
RTVSPropertyOp55
 70
     1
102
RTVSPropertyOp56
 70
     1
102
RTVSPropertyOp57
 70
     1
102
RTVSPost2010Prop28
280
     0
102
RTVSPost2010PropOp28
 70
     1
102
RTVSPost2010Prop29
280
     1
102
RTVSPost2010PropOp29
 70
     1
102
RTVSPost2010Prop30
280
     1
102
RTVSPost2010PropOp30
 70
     1
102
RTVSPost2010Prop31
280
     0
102
RTVSPost2010PropOp31
 70
     1
102
RTVSPost2010Prop32
280
     0
102
RTVSPost2010PropOp32
 70
     1
102
RTVSPost2010Prop33
280
     0
102
RTVSPost2010PropOp33
 70
     1
102
RTVSPost2010Prop34
280
     0
102
RTVSPost2010PropOp34
 70
     1
102
RTVSPost2010Prop35
280
     0
102
RTVSPost2010PropOp35
 70
     1
102
RTVSPost2010Prop36
280
     0
102
RTVSPost2010PropOp36
 70
     1
102
RTVSPost2010Prop37
 90
       50
102
RTVSPost2010PropOp37
 70
     1
102
RTVSPost2010Prop38
140
0.0
102
RTVSPost2010PropOp38
 70
     1
102
RTVSPost2010Prop39
140
1.0
102
RTVSPost2010PropOp39
 70
     1
102
RTVSPost2010Prop40
 90
        0
102
RTVSPost2010PropOp40
 70
     1
102
RTVSPost2010Prop41ColorIndex
 90
       18
102
RTVSPost2010Prop41ColorRGB
 90
        0
102
RTVSPost2010PropOp41
 70
     1
102
RTVSPost2010Prop42
 90
       50
102
RTVSPost2010PropOp42
 70
     1
102
RTVSPost2010Prop43
 90
        3
102
RTVSPost2010PropOp43
 70
     1
102
RTVSPost2010Prop44ColorIndex
 90
        5
102
RTVSPost2010Prop44ColorRGB
 90
      255
102
RTVSPost2010PropOp44
 70
     1
102
RTVSPost2010Prop45
280
     0
102
RTVSPost2010PropOp45
 70
     1
102
RTVSPost2010Prop46
 90
       50
102
RTVSPost2010PropOp46
 70
     1
102
RTVSPost2010Prop47
 90
       50
102
RTVSPost2010PropOp47
 70
     1
102
RTVSPost2010Prop48
 90
       50
102
RTVSPost2010PropOp48
 70
     1
102
RTVSPost2010Prop49
280
     0
102
RTVSPost2010PropOp49
 70
     1
102
RTVSPost2010Prop50
 90
       50
102
RTVSPost2010PropOp50
 70
     1
102
RTVSPost2010Prop51ColorIndex
 90
      256
102
RTVSPost2010Prop51ColorRGB
 90
-16777216
102
RTVSPost2010PropOp51
 70
     0
102
RTVSPost2010Prop52
140
1.0
102
RTVSPost2010PropOp52
 70
     0
102
RTVSPost2010Prop53
 90
        2
102
RTVSPost2010PropOp53
 70
     1
102
RTVSPost2010Prop54
  1
strokes_ogs.tif
102
RTVSPost2010PropOp54
 70
     1
102
RTVSPost2010Prop55
280
     0
102
RTVSPost2010PropOp55
 70
     1
102
RTVSPost2010Prop56
140
1.0
102
RTVSPost2010PropOp56
 70
     1
102
RTVSPost2010Prop57
140
1.0
102
RTVSPost2010PropOp57
 70
     1
  0
XRECORD
  5
3D5
102
{ACAD_REACTORS
330
3D4
102
}
330
3D4
100
AcDbXrecord
280
     1
102
RTVSPropertyOp0
 70
     1
102
RTVSPropertyOp1
 70
     1
102
RTVSPropertyOp2
 70
     1
102
RTVSPropertyOp3
 70
     1
102
RTVSPropertyOp4
 70
     1
102
RTVSPropertyOp5
 70
     1
102
RTVSPropertyOp6
 70
     1
102
RTVSPropertyOp7
 70
     1
102
RTVSPropertyOp8
 70
     1
102
RTVSPropertyOp9
 70
     1
102
RTVSPropertyOp10
 70
     1
102
RTVSPropertyOp11
 70
     1
102
RTVSPropertyOp12
 70
     1
102
RTVSPropertyOp13
 70
     1
102
RTVSPropertyOp14
 70
     1
102
RTVSPropertyOp15
 70
     1
102
RTVSPropertyOp16
 70
     1
102
RTVSPropertyOp17
 70
     1
102
RTVSPropertyOp18
 70
     1
102
RTVSPropertyOp19
 70
     1
102
RTVSPropertyOp20
 70
     1
102
RTVSPropertyOp21
 70
     1
102
RTVSPropertyOp22
 70
     1
102
RTVSPropertyOp23
 70
     1
102
RTVSPropertyOp24
 70
     1
102
RTVSPropertyOp25
 70
     1
102
RTVSPropertyOp26
 70
     1
102
RTVSPropertyOp27
 70
     1
102
RTVSPropertyOp28
 70
     1
102
RTVSPropertyOp29
 70
     1
102
RTVSPropertyOp30
 70
     1
102
RTVSPropertyOp31
 70
     1
102
RTVSPropertyOp32
 70
     1
102
RTVSPropertyOp33
 70
     1
102
RTVSPropertyOp34
 70
     1
102
RTVSPropertyOp35
 70
     1
102
RTVSPropertyOp36
 70
     1
102
RTVSPropertyOp37
 70
     1
102
RTVSPropertyOp38
 70
     1
102
RTVSPropertyOp39
 70
     1
102
RTVSPropertyOp40
 70
     1
102
RTVSPropertyOp41
 70
     1
102
RTVSPropertyOp42
 70
     1
102
RTVSPropertyOp43
 70
     1
102
RTVSPropertyOp44
 70
     1
102
RTVSPropertyOp45
 70
     1
102
RTVSPropertyOp46
 70
     1
102
RTVSPropertyOp47
 70
     1
102
RTVSPropertyOp48
 70
     1
102
RTVSPropertyOp49
 70
     1
102
RTVSPropertyOp50
 70
     1
102
RTVSPropertyOp51
 70
     0
102
RTVSPropertyOp52
 70
     0
102
RTVSPropertyOp53
 70
     1
102
RTVSPropertyOp54
 70
     1
102
RTVSPropertyOp55
 70
     1
102
RTVSPropertyOp56
 70
     1
102
RTVSPropertyOp57
 70
     1
102
RTVSPost2010Prop28
280
     0
102
RTVSPost2010PropOp28
 70
     1
102
RTVSPost2010Prop29
280
     1
102
RTVSPost2010PropOp29
 70
     1
102
RTVSPost2010Prop30
280
     1
102
RTVSPost2010PropOp30
 70
     1
102
RTVSPost2010Prop31
280
     0
102
RTVSPost2010PropOp31
 70
     1
102
RTVSPost2010Prop32
280
     0
102
RTVSPost2010PropOp32
 70
     1
102
RTVSPost2010Prop33
280
     0
102
RTVSPost2010PropOp33
 70
     1
102
RTVSPost2010Prop34
280
     0
102
RTVSPost2010PropOp34
 70
     1
102
RTVSPost2010Prop35
280
     0
102
RTVSPost2010PropOp35
 70
     1
102
RTVSPost2010Prop36
280
     0
102
RTVSPost2010PropOp36
 70
     1
102
RTVSPost2010Prop37
 90
       50
102
RTVSPost2010PropOp37
 70
     1
102
RTVSPost2010Prop38
140
0.0
102
RTVSPost2010PropOp38
 70
     1
102
RTVSPost2010Prop39
140
1.0
102
RTVSPost2010PropOp39
 70
     1
102
RTVSPost2010Prop40
 90
        0
102
RTVSPost2010PropOp40
 70
     1
102
RTVSPost2010Prop41ColorIndex
 90
       18
102
RTVSPost2010Prop41ColorRGB
 90
        0
102
RTVSPost2010PropOp41
 70
     1
102
RTVSPost2010Prop42
 90
       50
102
RTVSPost2010PropOp42
 70
     1
102
RTVSPost2010Prop43
 90
        3
102
RTVSPost2010PropOp43
 70
     1
102
RTVSPost2010Prop44ColorIndex
 90
        5
102
RTVSPost2010Prop44ColorRGB
 90
      255
102
RTVSPost2010PropOp44
 70
     1
102
RTVSPost2010Prop45
280
     0
102
RTVSPost2010PropOp45
 70
     1
102
RTVSPost2010Prop46
 90
       50
102
RTVSPost2010PropOp46
 70
     1
102
RTVSPost2010Prop47
 90
       50
102
RTVSPost2010PropOp47
 70
     1
102
RTVSPost2010Prop48
 90
       50
102
RTVSPost2010PropOp48
 70
     1
102
RTVSPost2010Prop49
280
     0
102
RTVSPost2010PropOp49
 70
     1
102
RTVSPost2010Prop50
 90
       50
102
RTVSPost2010PropOp50
 70
     1
102
RTVSPost2010Prop51ColorIndex
 90
      256
102
RTVSPost2010Prop51ColorRGB
 90
-16777216
102
RTVSPost2010PropOp51
 70
     0
102
RTVSPost2010Prop52
140
1.0
102
RTVSPost2010PropOp52
 70
     0
102
RTVSPost2010Prop53
 90
        2
102
RTVSPost2010PropOp53
 70
     1
102
RTVSPost2010Prop54
  1
strokes_ogs.tif
102
RTVSPost2010PropOp54
 70
     1
102
RTVSPost2010Prop55
280
     0
102
RTVSPost2010PropOp55
 70
     1
102
RTVSPost2010Prop56
140
1.0
102
RTVSPost2010PropOp56
 70
     1
102
RTVSPost2010Prop57
140
1.0
102
RTVSPost2010PropOp57
 70
     1
  0
XRECORD
  5
3D7
102
{ACAD_REACTORS
330
3D6
102
}
330
3D6
100
AcDbXrecord
280
     1
102
RTVSPropertyOp0
 70
     1
102
RTVSPropertyOp1
 70
     1
102
RTVSPropertyOp2
 70
     1
102
RTVSPropertyOp3
 70
     1
102
RTVSPropertyOp4
 70
     1
102
RTVSPropertyOp5
 70
     1
102
RTVSPropertyOp6
 70
     1
102
RTVSPropertyOp7
 70
     1
102
RTVSPropertyOp8
 70
     1
102
RTVSPropertyOp9
 70
     1
102
RTVSPropertyOp10
 70
     1
102
RTVSPropertyOp11
 70
     1
102
RTVSPropertyOp12
 70
     1
102
RTVSPropertyOp13
 70
     1
102
RTVSPropertyOp14
 70
     1
102
RTVSPropertyOp15
 70
     1
102
RTVSPropertyOp16
 70
     1
102
RTVSPropertyOp17
 70
     1
102
RTVSPropertyOp18
 70
     1
102
RTVSPropertyOp19
 70
     1
102
RTVSPropertyOp20
 70
     1
102
RTVSPropertyOp21
 70
     1
102
RTVSPropertyOp22
 70
     1
102
RTVSPropertyOp23
 70
     1
102
RTVSPropertyOp24
 70
     1
102
RTVSPropertyOp25
 70
     1
102
RTVSPropertyOp26
 70
     1
102
RTVSPropertyOp27
 70
     1
102
RTVSPropertyOp28
 70
     1
102
RTVSPropertyOp29
 70
     1
102
RTVSPropertyOp30
 70
     1
102
RTVSPropertyOp31
 70
     1
102
RTVSPropertyOp32
 70
     1
102
RTVSPropertyOp33
 70
     1
102
RTVSPropertyOp34
 70
     1
102
RTVSPropertyOp35
 70
     1
102
RTVSPropertyOp36
 70
     1
102
RTVSPropertyOp37
 70
     1
102
RTVSPropertyOp38
 70
     1
102
RTVSPropertyOp39
 70
     1
102
RTVSPropertyOp40
 70
     1
102
RTVSPropertyOp41
 70
     1
102
RTVSPropertyOp42
 70
     1
102
RTVSPropertyOp43
 70
     1
102
RTVSPropertyOp44
 70
     1
102
RTVSPropertyOp45
 70
     1
102
RTVSPropertyOp46
 70
     1
102
RTVSPropertyOp47
 70
     1
102
RTVSPropertyOp48
 70
     1
102
RTVSPropertyOp49
 70
     1
102
RTVSPropertyOp50
 70
     1
102
RTVSPropertyOp51
 70
     0
102
RTVSPropertyOp52
 70
     0
102
RTVSPropertyOp53
 70
     1
102
RTVSPropertyOp54
 70
     1
102
RTVSPropertyOp55
 70
     1
102
RTVSPropertyOp56
 70
     1
102
RTVSPropertyOp57
 70
     1
102
RTVSPost2010Prop28
280
     0
102
RTVSPost2010PropOp28
 70
     1
102
RTVSPost2010Prop29
280
     1
102
RTVSPost2010PropOp29
 70
     1
102
RTVSPost2010Prop30
280
     1
102
RTVSPost2010PropOp30
 70
     1
102
RTVSPost2010Prop31
280
     0
102
RTVSPost2010PropOp31
 70
     1
102
RTVSPost2010Prop32
280
     0
102
RTVSPost2010PropOp32
 70
     1
102
RTVSPost2010Prop33
280
     0
102
RTVSPost2010PropOp33
 70
     1
102
RTVSPost2010Prop34
280
     0
102
RTVSPost2010PropOp34
 70
     1
102
RTVSPost2010Prop35
280
     0
102
RTVSPost2010PropOp35
 70
     1
102
RTVSPost2010Prop36
280
     0
102
RTVSPost2010PropOp36
 70
     1
102
RTVSPost2010Prop37
 90
       50
102
RTVSPost2010PropOp37
 70
     1
102
RTVSPost2010Prop38
140
0.0
102
RTVSPost2010PropOp38
 70
     1
102
RTVSPost2010Prop39
140
1.0
102
RTVSPost2010PropOp39
 70
     1
102
RTVSPost2010Prop40
 90
        0
102
RTVSPost2010PropOp40
 70
     1
102
RTVSPost2010Prop41ColorIndex
 90
       18
102
RTVSPost2010Prop41ColorRGB
 90
        0
102
RTVSPost2010PropOp41
 70
     1
102
RTVSPost2010Prop42
 90
       50
102
RTVSPost2010PropOp42
 70
     1
102
RTVSPost2010Prop43
 90
        3
102
RTVSPost2010PropOp43
 70
     1
102
RTVSPost2010Prop44ColorIndex
 90
        5
102
RTVSPost2010Prop44ColorRGB
 90
      255
102
RTVSPost2010PropOp44
 70
     1
102
RTVSPost2010Prop45
280
     0
102
RTVSPost2010PropOp45
 70
     1
102
RTVSPost2010Prop46
 90
       50
102
RTVSPost2010PropOp46
 70
     1
102
RTVSPost2010Prop47
 90
       50
102
RTVSPost2010PropOp47
 70
     1
102
RTVSPost2010Prop48
 90
       50
102
RTVSPost2010PropOp48
 70
     1
102
RTVSPost2010Prop49
280
     0
102
RTVSPost2010PropOp49
 70
     1
102
RTVSPost2010Prop50
 90
       50
102
RTVSPost2010PropOp50
 70
     1
102
RTVSPost2010Prop51ColorIndex
 90
      256
102
RTVSPost2010Prop51ColorRGB
 90
-16777216
102
RTVSPost2010PropOp51
 70
     0
102
RTVSPost2010Prop52
140
1.0
102
RTVSPost2010PropOp52
 70
     0
102
RTVSPost2010Prop53
 90
        2
102
RTVSPost2010PropOp53
 70
     1
102
RTVSPost2010Prop54
  1
strokes_ogs.tif
102
RTVSPost2010PropOp54
 70
     1
102
RTVSPost2010Prop55
280
     0
102
RTVSPost2010PropOp55
 70
     1
102
RTVSPost2010Prop56
140
1.0
102
RTVSPost2010PropOp56
 70
     1
102
RTVSPost2010Prop57
140
1.0
102
RTVSPost2010PropOp57
 70
     1
  0
XRECORD
  5
3C7
102
{ACAD_REACTORS
330
3C6
102
}
330
3C6
100
AcDbXrecord
280
     1
102
RTVSPropertyOp0
 70
     1
102
RTVSPropertyOp1
 70
     1
102
RTVSPropertyOp2
 70
     1
102
RTVSPropertyOp3
 70
     1
102
RTVSPropertyOp4
 70
     1
102
RTVSPropertyOp5
 70
     1
102
RTVSPropertyOp6
 70
     1
102
RTVSPropertyOp7
 70
     1
102
RTVSPropertyOp8
 70
     1
102
RTVSPropertyOp9
 70
     1
102
RTVSPropertyOp10
 70
     1
102
RTVSPropertyOp11
 70
     1
102
RTVSPropertyOp12
 70
     1
102
RTVSPropertyOp13
 70
     1
102
RTVSPropertyOp14
 70
     1
102
RTVSPropertyOp15
 70
     1
102
RTVSPropertyOp16
 70
     1
102
RTVSPropertyOp17
 70
     1
102
RTVSPropertyOp18
 70
     1
102
RTVSPropertyOp19
 70
     1
102
RTVSPropertyOp20
 70
     1
102
RTVSPropertyOp21
 70
     1
102
RTVSPropertyOp22
 70
     1
102
RTVSPropertyOp23
 70
     1
102
RTVSPropertyOp24
 70
     1
102
RTVSPropertyOp25
 70
     1
102
RTVSPropertyOp26
 70
     1
102
RTVSPropertyOp27
 70
     1
102
RTVSPropertyOp28
 70
     1
102
RTVSPropertyOp29
 70
     1
102
RTVSPropertyOp30
 70
     1
102
RTVSPropertyOp31
 70
     1
102
RTVSPropertyOp32
 70
     1
102
RTVSPropertyOp33
 70
     1
102
RTVSPropertyOp34
 70
     1
102
RTVSPropertyOp35
 70
     1
102
RTVSPropertyOp36
 70
     1
102
RTVSPropertyOp37
 70
     1
102
RTVSPropertyOp38
 70
     1
102
RTVSPropertyOp39
 70
     1
102
RTVSPropertyOp40
 70
     1
102
RTVSPropertyOp41
 70
     1
102
RTVSPropertyOp42
 70
     1
102
RTVSPropertyOp43
 70
     1
102
RTVSPropertyOp44
 70
     1
102
RTVSPropertyOp45
 70
     1
102
RTVSPropertyOp46
 70
     1
102
RTVSPropertyOp47
 70
     1
102
RTVSPropertyOp48
 70
     1
102
RTVSPropertyOp49
 70
     1
102
RTVSPropertyOp50
 70
     1
102
RTVSPropertyOp51
 70
     0
102
RTVSPropertyOp52
 70
     0
102
RTVSPropertyOp53
 70
     1
102
RTVSPropertyOp54
 70
     1
102
RTVSPropertyOp55
 70
     1
102
RTVSPropertyOp56
 70
     1
102
RTVSPropertyOp57
 70
     1
102
RTVSPost2010Prop28
280
     0
102
RTVSPost2010PropOp28
 70
     1
102
RTVSPost2010Prop29
280
     1
102
RTVSPost2010PropOp29
 70
     1
102
RTVSPost2010Prop30
280
     1
102
RTVSPost2010PropOp30
 70
     1
102
RTVSPost2010Prop31
280
     0
102
RTVSPost2010PropOp31
 70
     1
102
RTVSPost2010Prop32
280
     0
102
RTVSPost2010PropOp32
 70
     1
102
RTVSPost2010Prop33
280
     0
102
RTVSPost2010PropOp33
 70
     1
102
RTVSPost2010Prop34
280
     0
102
RTVSPost2010PropOp34
 70
     1
102
RTVSPost2010Prop35
280
     0
102
RTVSPost2010PropOp35
 70
     1
102
RTVSPost2010Prop36
280
     0
102
RTVSPost2010PropOp36
 70
     1
102
RTVSPost2010Prop37
 90
       50
102
RTVSPost2010PropOp37
 70
     1
102
RTVSPost2010Prop38
140
0.0
102
RTVSPost2010PropOp38
 70
     1
102
RTVSPost2010Prop39
140
1.0
102
RTVSPost2010PropOp39
 70
     1
102
RTVSPost2010Prop40
 90
        0
102
RTVSPost2010PropOp40
 70
     1
102
RTVSPost2010Prop41ColorIndex
 90
       18
102
RTVSPost2010Prop41ColorRGB
 90
        0
102
RTVSPost2010PropOp41
 70
     1
102
RTVSPost2010Prop42
 90
       50
102
RTVSPost2010PropOp42
 70
     1
102
RTVSPost2010Prop43
 90
        3
102
RTVSPost2010PropOp43
 70
     1
102
RTVSPost2010Prop44ColorIndex
 90
        5
102
RTVSPost2010Prop44ColorRGB
 90
      255
102
RTVSPost2010PropOp44
 70
     1
102
RTVSPost2010Prop45
280
     0
102
RTVSPost2010PropOp45
 70
     1
102
RTVSPost2010Prop46
 90
       50
102
RTVSPost2010PropOp46
 70
     1
102
RTVSPost2010Prop47
 90
       50
102
RTVSPost2010PropOp47
 70
     1
102
RTVSPost2010Prop48
 90
       50
102
RTVSPost2010PropOp48
 70
     1
102
RTVSPost2010Prop49
280
     0
102
RTVSPost2010PropOp49
 70
     1
102
RTVSPost2010Prop50
 90
       50
102
RTVSPost2010PropOp50
 70
     1
102
RTVSPost2010Prop51ColorIndex
 90
      256
102
RTVSPost2010Prop51ColorRGB
 90
-16777216
102
RTVSPost2010PropOp51
 70
     0
102
RTVSPost2010Prop52
140
1.0
102
RTVSPost2010PropOp52
 70
     0
102
RTVSPost2010Prop53
 90
        2
102
RTVSPost2010PropOp53
 70
     1
102
RTVSPost2010Prop54
  1
strokes_ogs.tif
102
RTVSPost2010PropOp54
 70
     1
102
RTVSPost2010Prop55
280
     0
102
RTVSPost2010PropOp55
 70
     1
102
RTVSPost2010Prop56
140
1.0
102
RTVSPost2010PropOp56
 70
     1
102
RTVSPost2010Prop57
140
1.0
102
RTVSPost2010PropOp57
 70
     1
  0
XRECORD
  5
3B9
102
{ACAD_REACTORS
330
3B8
102
}
330
3B8
100
AcDbXrecord
280
     1
102
RTVSPropertyOp0
 70
     1
102
RTVSPropertyOp1
 70
     1
102
RTVSPropertyOp2
 70
     1
102
RTVSPropertyOp3
 70
     1
102
RTVSPropertyOp4
 70
     1
102
RTVSPropertyOp5
 70
     1
102
RTVSPropertyOp6
 70
     1
102
RTVSPropertyOp7
 70
     1
102
RTVSPropertyOp8
 70
     1
102
RTVSPropertyOp9
 70
     1
102
RTVSPropertyOp10
 70
     1
102
RTVSPropertyOp11
 70
     1
102
RTVSPropertyOp12
 70
     1
102
RTVSPropertyOp13
 70
     1
102
RTVSPropertyOp14
 70
     1
102
RTVSPropertyOp15
 70
     1
102
RTVSPropertyOp16
 70
     1
102
RTVSPropertyOp17
 70
     1
102
RTVSPropertyOp18
 70
     1
102
RTVSPropertyOp19
 70
     1
102
RTVSPropertyOp20
 70
     1
102
RTVSPropertyOp21
 70
     1
102
RTVSPropertyOp22
 70
     1
102
RTVSPropertyOp23
 70
     1
102
RTVSPropertyOp24
 70
     1
102
RTVSPropertyOp25
 70
     1
102
RTVSPropertyOp26
 70
     1
102
RTVSPropertyOp27
 70
     1
102
RTVSPropertyOp28
 70
     1
102
RTVSPropertyOp29
 70
     1
102
RTVSPropertyOp30
 70
     1
102
RTVSPropertyOp31
 70
     1
102
RTVSPropertyOp32
 70
     1
102
RTVSPropertyOp33
 70
     1
102
RTVSPropertyOp34
 70
     1
102
RTVSPropertyOp35
 70
     1
102
RTVSPropertyOp36
 70
     1
102
RTVSPropertyOp37
 70
     1
102
RTVSPropertyOp38
 70
     1
102
RTVSPropertyOp39
 70
     1
102
RTVSPropertyOp40
 70
     1
102
RTVSPropertyOp41
 70
     1
102
RTVSPropertyOp42
 70
     1
102
RTVSPropertyOp43
 70
     1
102
RTVSPropertyOp44
 70
     1
102
RTVSPropertyOp45
 70
     1
102
RTVSPropertyOp46
 70
     1
102
RTVSPropertyOp47
 70
     1
102
RTVSPropertyOp48
 70
     1
102
RTVSPropertyOp49
 70
     1
102
RTVSPropertyOp50
 70
     1
102
RTVSPropertyOp51
 70
     0
102
RTVSPropertyOp52
 70
     0
102
RTVSPropertyOp53
 70
     1
102
RTVSPropertyOp54
 70
     1
102
RTVSPropertyOp55
 70
     1
102
RTVSPropertyOp56
 70
     1
102
RTVSPropertyOp57
 70
     1
102
RTVSPost2010Prop28
280
     0
102
RTVSPost2010PropOp28
 70
     1
102
RTVSPost2010Prop29
280
     1
102
RTVSPost2010PropOp29
 70
     1
102
RTVSPost2010Prop30
280
     1
102
RTVSPost2010PropOp30
 70
     1
102
RTVSPost2010Prop31
280
     0
102
RTVSPost2010PropOp31
 70
     1
102
RTVSPost2010Prop32
280
     0
102
RTVSPost2010PropOp32
 70
     1
102
RTVSPost2010Prop33
280
     0
102
RTVSPost2010PropOp33
 70
     1
102
RTVSPost2010Prop34
280
     0
102
RTVSPost2010PropOp34
 70
     1
102
RTVSPost2010Prop35
280
     0
102
RTVSPost2010PropOp35
 70
     1
102
RTVSPost2010Prop36
280
     0
102
RTVSPost2010PropOp36
 70
     1
102
RTVSPost2010Prop37
 90
       50
102
RTVSPost2010PropOp37
 70
     1
102
RTVSPost2010Prop38
140
0.0
102
RTVSPost2010PropOp38
 70
     1
102
RTVSPost2010Prop39
140
1.0
102
RTVSPost2010PropOp39
 70
     1
102
RTVSPost2010Prop40
 90
        0
102
RTVSPost2010PropOp40
 70
     1
102
RTVSPost2010Prop41ColorIndex
 90
       18
102
RTVSPost2010Prop41ColorRGB
 90
        0
102
RTVSPost2010PropOp41
 70
     1
102
RTVSPost2010Prop42
 90
       50
102
RTVSPost2010PropOp42
 70
     1
102
RTVSPost2010Prop43
 90
        3
102
RTVSPost2010PropOp43
 70
     1
102
RTVSPost2010Prop44ColorIndex
 90
        5
102
RTVSPost2010Prop44ColorRGB
 90
      255
102
RTVSPost2010PropOp44
 70
     1
102
RTVSPost2010Prop45
280
     0
102
RTVSPost2010PropOp45
 70
     1
102
RTVSPost2010Prop46
 90
       50
102
RTVSPost2010PropOp46
 70
     1
102
RTVSPost2010Prop47
 90
       50
102
RTVSPost2010PropOp47
 70
     1
102
RTVSPost2010Prop48
 90
       50
102
RTVSPost2010PropOp48
 70
     1
102
RTVSPost2010Prop49
280
     0
102
RTVSPost2010PropOp49
 70
     1
102
RTVSPost2010Prop50
 90
       50
102
RTVSPost2010PropOp50
 70
     1
102
RTVSPost2010Prop51ColorIndex
 90
      256
102
RTVSPost2010Prop51ColorRGB
 90
-16777216
102
RTVSPost2010PropOp51
 70
     0
102
RTVSPost2010Prop52
140
1.0
102
RTVSPost2010PropOp52
 70
     0
102
RTVSPost2010Prop53
 90
        2
102
RTVSPost2010PropOp53
 70
     1
102
RTVSPost2010Prop54
  1
strokes_ogs.tif
102
RTVSPost2010PropOp54
 70
     1
102
RTVSPost2010Prop55
280
     0
102
RTVSPost2010PropOp55
 70
     1
102
RTVSPost2010Prop56
140
1.0
102
RTVSPost2010PropOp56
 70
     1
102
RTVSPost2010Prop57
140
1.0
102
RTVSPost2010PropOp57
 70
     1
  0
XRECORD
  5
3D9
102
{ACAD_REACTORS
330
3D8
102
}
330
3D8
100
AcDbXrecord
280
     1
102
RTVSPropertyOp0
 70
     1
102
RTVSPropertyOp1
 70
     1
102
RTVSPropertyOp2
 70
     1
102
RTVSPropertyOp3
 70
     1
102
RTVSPropertyOp4
 70
     1
102
RTVSPropertyOp5
 70
     1
102
RTVSPropertyOp6
 70
     1
102
RTVSPropertyOp7
 70
     1
102
RTVSPropertyOp8
 70
     1
102
RTVSPropertyOp9
 70
     1
102
RTVSPropertyOp10
 70
     1
102
RTVSPropertyOp11
 70
     1
102
RTVSPropertyOp12
 70
     1
102
RTVSPropertyOp13
 70
     1
102
RTVSPropertyOp14
 70
     1
102
RTVSPropertyOp15
 70
     1
102
RTVSPropertyOp16
 70
     1
102
RTVSPropertyOp17
 70
     1
102
RTVSPropertyOp18
 70
     1
102
RTVSPropertyOp19
 70
     1
102
RTVSPropertyOp20
 70
     1
102
RTVSPropertyOp21
 70
     1
102
RTVSPropertyOp22
 70
     1
102
RTVSPropertyOp23
 70
     1
102
RTVSPropertyOp24
 70
     1
102
RTVSPropertyOp25
 70
     1
102
RTVSPropertyOp26
 70
     1
102
RTVSPropertyOp27
 70
     1
102
RTVSPropertyOp28
 70
     1
102
RTVSPropertyOp29
 70
     1
102
RTVSPropertyOp30
 70
     1
102
RTVSPropertyOp31
 70
     1
102
RTVSPropertyOp32
 70
     1
102
RTVSPropertyOp33
 70
     1
102
RTVSPropertyOp34
 70
     1
102
RTVSPropertyOp35
 70
     1
102
RTVSPropertyOp36
 70
     1
102
RTVSPropertyOp37
 70
     1
102
RTVSPropertyOp38
 70
     1
102
RTVSPropertyOp39
 70
     1
102
RTVSPropertyOp40
 70
     1
102
RTVSPropertyOp41
 70
     1
102
RTVSPropertyOp42
 70
     1
102
RTVSPropertyOp43
 70
     1
102
RTVSPropertyOp44
 70
     1
102
RTVSPropertyOp45
 70
     1
102
RTVSPropertyOp46
 70
     1
102
RTVSPropertyOp47
 70
     1
102
RTVSPropertyOp48
 70
     1
102
RTVSPropertyOp49
 70
     1
102
RTVSPropertyOp50
 70
     1
102
RTVSPropertyOp51
 70
     0
102
RTVSPropertyOp52
 70
     0
102
RTVSPropertyOp53
 70
     1
102
RTVSPropertyOp54
 70
     1
102
RTVSPropertyOp55
 70
     1
102
RTVSPropertyOp56
 70
     1
102
RTVSPropertyOp57
 70
     1
102
RTVSPost2010Prop28
280
     0
102
RTVSPost2010PropOp28
 70
     1
102
RTVSPost2010Prop29
280
     1
102
RTVSPost2010PropOp29
 70
     1
102
RTVSPost2010Prop30
280
     1
102
RTVSPost2010PropOp30
 70
     1
102
RTVSPost2010Prop31
280
     0
102
RTVSPost2010PropOp31
 70
     1
102
RTVSPost2010Prop32
280
     0
102
RTVSPost2010PropOp32
 70
     1
102
RTVSPost2010Prop33
280
     0
102
RTVSPost2010PropOp33
 70
     1
102
RTVSPost2010Prop34
280
     0
102
RTVSPost2010PropOp34
 70
     1
102
RTVSPost2010Prop35
280
     0
102
RTVSPost2010PropOp35
 70
     1
102
RTVSPost2010Prop36
280
     0
102
RTVSPost2010PropOp36
 70
     1
102
RTVSPost2010Prop37
 90
       50
102
RTVSPost2010PropOp37
 70
     1
102
RTVSPost2010Prop38
140
0.0
102
RTVSPost2010PropOp38
 70
     1
102
RTVSPost2010Prop39
140
1.0
102
RTVSPost2010PropOp39
 70
     1
102
RTVSPost2010Prop40
 90
        0
102
RTVSPost2010PropOp40
 70
     1
102
RTVSPost2010Prop41ColorIndex
 90
       18
102
RTVSPost2010Prop41ColorRGB
 90
        0
102
RTVSPost2010PropOp41
 70
     1
102
RTVSPost2010Prop42
 90
       50
102
RTVSPost2010PropOp42
 70
     1
102
RTVSPost2010Prop43
 90
        3
102
RTVSPost2010PropOp43
 70
     1
102
RTVSPost2010Prop44ColorIndex
 90
        5
102
RTVSPost2010Prop44ColorRGB
 90
      255
102
RTVSPost2010PropOp44
 70
     1
102
RTVSPost2010Prop45
280
     0
102
RTVSPost2010PropOp45
 70
     1
102
RTVSPost2010Prop46
 90
       50
102
RTVSPost2010PropOp46
 70
     1
102
RTVSPost2010Prop47
 90
       50
102
RTVSPost2010PropOp47
 70
     1
102
RTVSPost2010Prop48
 90
       50
102
RTVSPost2010PropOp48
 70
     1
102
RTVSPost2010Prop49
280
     0
102
RTVSPost2010PropOp49
 70
     1
102
RTVSPost2010Prop50
 90
       50
102
RTVSPost2010PropOp50
 70
     1
102
RTVSPost2010Prop51ColorIndex
 90
      256
102
RTVSPost2010Prop51ColorRGB
 90
-16777216
102
RTVSPost2010PropOp51
 70
     0
102
RTVSPost2010Prop52
140
1.0
102
RTVSPost2010PropOp52
 70
     0
102
RTVSPost2010Prop53
 90
        2
102
RTVSPost2010PropOp53
 70
     1
102
RTVSPost2010Prop54
  1
strokes_ogs.tif
102
RTVSPost2010PropOp54
 70
     1
102
RTVSPost2010Prop55
280
     0
102
RTVSPost2010PropOp55
 70
     1
102
RTVSPost2010Prop56
140
1.0
102
RTVSPost2010PropOp56
 70
     1
102
RTVSPost2010Prop57
140
1.0
102
RTVSPost2010PropOp57
 70
     1
  0
ENDSEC
  0
EOF
